<?xml version="1.0" standalone="no"?>
<!DOCTYPE svg PUBLIC "-//W3C//DTD SVG 1.1//EN" "http://www.w3.org/Graphics/SVG/1.1/DTD/svg11.dtd" >
<svg xmlns="http://www.w3.org/2000/svg">
<metadata></metadata>
<defs>
<font id="helvetica_ltbold" horiz-adv-x="1138" >
<font-face units-per-em="2048" ascent="1638" descent="-410" />
<missing-glyph horiz-adv-x="569" />
<glyph horiz-adv-x="2048" />
<glyph horiz-adv-x="2048" />
<glyph unicode="&#xd;" horiz-adv-x="2048" />
<glyph unicode=" "  horiz-adv-x="569" />
<glyph unicode="&#x09;" horiz-adv-x="569" />
<glyph unicode="&#xa0;" horiz-adv-x="569" />
<glyph unicode="!" horiz-adv-x="681" d="M184 1096v374h316v-374l-82 -688h-152zM193 0v289h299v-289h-299z" />
<glyph unicode="&#x22;" horiz-adv-x="970" d="M201 915v555h200v-555h-200zM569 915v555h201v-555h-201z" />
<glyph unicode="#" d="M37 408l24 184h199l35 246h-199l25 184h198l58 408h192l-57 -408h199l57 408h193l-58 -408h199l-25 -184h-198l-35 -246h198l-24 -184h-199l-57 -408h-193l58 408h-199l-57 -408h-193l58 408h-199zM453 592h198l35 246h-199z" />
<glyph unicode="$" d="M61 440h269q4 -53 13 -96t28.5 -75.5t55.5 -54t95 -32.5v430q-76 20 -152.5 48t-138 74t-100.5 117t-39 177q0 84 26.5 161t80 135t134.5 93t189 37v133h94v-133q57 -6 128 -22.5t135.5 -61.5t111.5 -126t58 -218h-265q-4 70 -19 112t-39 64.5t-51.5 28.5t-58.5 6v-383 q145 -47 224.5 -86t117.5 -76q41 -39 63.5 -82t34 -82t13.5 -71.5t2 -50.5q0 -72 -23.5 -147t-76.5 -137.5t-140.5 -106.5t-214.5 -50v-201h-94v201q-125 10 -212 43t-142 90.5t-81 142.5t-26 199zM350 1077q0 -49 15.5 -84t40 -56.5t55.5 -34.5t61 -19v354 q-45 -2 -77.5 -18.5t-53 -39t-31 -50t-10.5 -52.5zM616 182q25 2 57 11.5t59.5 32t46 60.5t18.5 97q0 45 -16.5 78t-43 55.5t-58.5 37.5t-63 24v-396z" />
<glyph unicode="%" horiz-adv-x="1820" d="M57 1081q0 78 30 145.5t80 119t117.5 80t145.5 28.5q76 0 143.5 -29.5t118.5 -80t81 -119t30 -144.5q0 -78 -30 -145.5t-81 -118.5t-118.5 -79.5t-143.5 -28.5q-78 0 -145.5 28.5t-117.5 78.5t-80 118.5t-30 146.5zM268 1081q0 -68 48.5 -114.5t113.5 -46.5q66 0 114 47 t48 114q0 68 -48 115t-114 47t-114 -47t-48 -115zM422 -39l815 1493h152l-816 -1493h-151zM1018 348q0 78 29.5 145.5t80 119t118 80t145.5 28.5q76 0 143.5 -29.5t118.5 -80t80.5 -119t29.5 -144.5q0 -78 -29.5 -145.5t-80.5 -118.5t-119 -80t-143 -29q-78 0 -145.5 29 t-118 79t-80 118.5t-29.5 146.5zM1229 348q0 -68 48 -115t114 -47t113.5 47.5t47.5 114.5q0 68 -48 115t-113 47q-66 0 -114 -47t-48 -115z" />
<glyph unicode="&#x26;" horiz-adv-x="1478" d="M111 379q0 53 10 105.5t39.5 105.5t85 107.5t147.5 109.5l31 18q-47 53 -90 132t-43 176q0 76 28.5 137t81 106t124 69.5t157.5 24.5q61 0 124.5 -20t116 -61t86 -105.5t33.5 -153.5q0 -78 -29.5 -137t-69.5 -102t-81 -70.5t-63 -40.5l209 -258q29 43 48 99.5t27 142.5 h254q-6 -74 -19 -134.5t-33.5 -112.5t-49.5 -99t-66 -96l267 -322h-346l-101 125q-33 -33 -70.5 -62.5t-88 -52t-115 -36t-146.5 -13.5q-104 0 -189 35t-145.5 92t-92 133t-31.5 158zM397 397q0 -23 9.5 -55.5t34 -63t66.5 -53t107 -22.5q72 0 131.5 33.5t96.5 68.5 l-271 338q-45 -33 -77.5 -59.5t-54 -53t-32 -58.5t-10.5 -75zM553 1135q0 -37 26.5 -82t79.5 -103q59 37 97.5 81.5t38.5 101.5q0 61 -35 90.5t-88 29.5q-47 0 -83 -29.5t-36 -88.5z" />
<glyph unicode="'" horiz-adv-x="487" d="M143 915v555h201v-555h-201z" />
<glyph unicode="(" horiz-adv-x="681" d="M72 535q0 150 29.5 283.5t78.5 254.5t114.5 227.5t137.5 202.5h211q-59 -100 -109.5 -204.5t-87 -221t-58 -250t-21.5 -292.5q0 -160 22.5 -293t60 -249t88 -218.5t105.5 -200.5h-211q-68 92 -133.5 197.5t-115.5 225.5t-80.5 254t-30.5 284z" />
<glyph unicode=")" horiz-adv-x="681" d="M39 -426q59 100 109.5 204.5t87 221.5t58 250t21.5 293t-22.5 293t-60 248.5t-88 218t-105.5 200.5h211q68 -92 133.5 -197.5t115.5 -225t80.5 -254t30.5 -283.5q0 -150 -29.5 -284t-78.5 -255t-114.5 -228.5t-137.5 -201.5h-211z" />
<glyph unicode="*" horiz-adv-x="796" d="M55 1147l47 149l209 -69v243h174v-243l207 69l49 -149l-215 -66l142 -198l-129 -90l-140 186l-141 -186l-129 90l139 198z" />
<glyph unicode="+" horiz-adv-x="1196" d="M82 403v230h401v403h230v-403h401v-230h-401v-403h-230v403h-401z" />
<glyph unicode="," horiz-adv-x="569" d="M131 0v299h307v-258q0 -94 -23.5 -160.5t-64.5 -110.5t-96 -72t-121 -42h-2v108q29 10 58.5 23.5t53 39.5t40 66.5t20.5 106.5h-172z" />
<glyph unicode="-" horiz-adv-x="681" d="M55 440v267h572v-267h-572z" />
<glyph unicode="." horiz-adv-x="569" d="M131 0v299h307v-299h-307z" />
<glyph unicode="/" horiz-adv-x="569" d="M-68 -39l465 1548h240l-465 -1548h-240z" />
<glyph unicode="0" d="M66 709q0 383 123.5 564t379.5 181t380 -181t124 -564t-124 -565.5t-380 -182.5t-379.5 182.5t-123.5 565.5zM360 709q0 -141 9.5 -239.5t34 -160t64.5 -90.5t101 -29t101.5 29t65 90.5t33.5 159.5t9 240q0 141 -9 239.5t-33.5 159.5t-64.5 89t-102 28q-61 0 -101 -28 t-64.5 -89t-34 -159.5t-9.5 -239.5z" />
<glyph unicode="1" d="M141 1001v201h41q104 0 172 24.5t108 61.5t57.5 81t19.5 85h235v-1454h-287v1001h-346z" />
<glyph unicode="2" d="M53 0q4 63 13.5 130t42 137.5t98 147.5t184.5 163q98 72 168 124t114 99t64.5 95t20.5 110q0 37 -12.5 73.5t-37 66.5t-62.5 48t-89 18q-76 0 -118 -27.5t-61.5 -68.5t-24.5 -89t-5 -87h-278q0 119 26.5 203t68.5 141t94 91t105.5 51.5t100.5 22.5t80 5q104 0 195 -30.5 t159 -89t106.5 -143.5t38.5 -196q0 -94 -27.5 -165.5t-70.5 -128t-97 -99.5t-108 -80q-72 -51 -127 -90t-95 -69.5t-65.5 -57t-37.5 -51.5h631v-254h-994z" />
<glyph unicode="3" d="M55 446h281l-2 -2q0 -29 6 -72.5t27.5 -83.5t64.5 -69t115 -29q86 0 150.5 59.5t64.5 180.5q0 74 -32 116t-81 62.5t-106.5 24.5t-106.5 4v205h45q33 0 75 4t80 23.5t63.5 58.5t25.5 110q0 20 -6 52t-25.5 62t-55.5 51.5t-95 21.5q-74 0 -114 -30t-58.5 -70t-21.5 -79.5 t-3 -58.5h-266q0 102 28.5 188.5t89 147.5t150.5 96t213 35q74 0 153 -20.5t145.5 -67.5t109.5 -125t43 -192q0 -55 -15.5 -100.5t-41 -80t-56.5 -58.5t-61 -38v-4q18 -6 55 -24.5t74 -57.5t63.5 -101.5t26.5 -154.5q0 -102 -36 -188t-101.5 -148.5t-156.5 -97.5t-202 -35 q-35 0 -85 4t-106.5 20.5t-112.5 48.5t-101 85t-73 133t-28 194z" />
<glyph unicode="4" d="M55 322v247l535 885h325v-909h162v-223h-162v-322h-286v322h-574zM266 545h363q0 266 3 428t3 196h-4z" />
<glyph unicode="5" d="M55 389h287q10 -90 58.5 -144.5t144.5 -54.5q104 0 160.5 78t56.5 195q0 49 -12.5 95t-38 83t-65.5 59.5t-97 22.5q-14 0 -39 -2t-51.5 -12.5t-54 -31t-48.5 -59.5l-256 13l101 799h798v-242h-591l-52 -316q41 29 97.5 54.5t162.5 25.5q74 0 152 -26.5t142.5 -83 t105.5 -145.5t41 -214q0 -74 -22.5 -165t-81 -170.5t-162 -133t-263.5 -53.5q-86 0 -167.5 25.5t-148.5 79t-109 133.5t-48 190z" />
<glyph unicode="6" d="M63 692q0 70 5.5 153t24 168t53 163.5t95 141t148.5 99.5t215 37q23 0 62 -5t82 -15.5t84.5 -29t68.5 -44.5q31 -29 51.5 -54.5t36 -55t26.5 -68.5t21 -97h-284q-6 61 -47 100.5t-121 39.5q-70 0 -115 -36t-71.5 -94.5t-38 -130t-15.5 -141.5l4 -4q14 20 36 42t54.5 39.5 t76.5 28.5t106 11q113 0 196.5 -40t139 -103.5t82 -143.5t26.5 -161q0 -119 -35 -217.5t-97.5 -168t-150.5 -107.5t-192 -38q-166 0 -268.5 63.5t-160 166t-78 234.5t-20.5 267zM350 461q0 -119 61.5 -195t166.5 -76q39 0 75.5 15.5t64 49.5t44 86t16.5 126q0 70 -20.5 116 t-51 74.5t-67.5 41t-70 12.5q-41 0 -79.5 -13.5t-69.5 -43t-50.5 -78t-19.5 -115.5z" />
<glyph unicode="7" d="M51 1176l6 254h1024v-222q-53 -57 -137 -164.5t-167 -261t-148.5 -350t-77.5 -432.5h-295q8 145 41 279.5t80 254t103.5 223t111.5 185.5t103 141.5t79 92.5h-723z" />
<glyph unicode="8" d="M66 403q0 27 3 74t24.5 99.5t65.5 104.5t128 91q-86 43 -131 112.5t-45 172.5q0 92 34.5 165.5t96 125t143.5 79t178 27.5q113 0 199 -30.5t144.5 -83t88 -121t29.5 -144.5q0 -94 -40 -170t-128 -123q51 -27 92 -58.5t68.5 -72.5t42 -95t14.5 -124t-24.5 -151.5 t-83 -152.5t-155.5 -119t-241 -48q-141 0 -237 41t-155.5 105.5t-85 143.5t-25.5 152zM360 422q0 -104 56.5 -168t154.5 -64q55 0 95.5 21.5t65 55.5t35.5 75t11 78q0 39 -11 79t-35.5 72.5t-65.5 54t-101 21.5q-39 0 -75.5 -13t-65.5 -41t-46.5 -70t-17.5 -101zM385 1044 q0 -33 12.5 -64.5t35 -57t57 -42t81.5 -16.5q86 0 132.5 51.5t46.5 128.5q0 84 -49.5 132.5t-118.5 48.5q-98 0 -147.5 -50.5t-49.5 -130.5z" />
<glyph unicode="9" d="M61 932q0 133 38 231.5t103.5 163t157 96t197.5 31.5q127 0 213 -41t143.5 -107.5t89 -148.5t46 -165t17.5 -158.5t3 -126.5q0 -211 -46 -354.5t-120 -230.5t-169 -124t-193 -37q-92 0 -171 25.5t-138.5 75t-96.5 119t-45 155.5h285v-2q12 -76 57 -110t111 -34 q45 0 87 20.5t75.5 68t55 125t21.5 192.5l-4 4q-49 -74 -126 -98.5t-150 -24.5q-104 0 -186.5 37t-138.5 99.5t-86 144.5t-30 174zM348 973q0 -82 18.5 -134.5t48 -81t68.5 -39.5t80 -11q37 0 75 14t68.5 43t49 75t18.5 111q0 125 -54 197t-165 72q-29 0 -63.5 -9.5 t-67.5 -36t-54.5 -74.5t-21.5 -126z" />
<glyph unicode=":" horiz-adv-x="681" d="M188 0v299h308v-299h-308zM188 750v299h308v-299h-308z" />
<glyph unicode=";" horiz-adv-x="681" d="M188 0v299h308v-258q0 -94 -23.5 -160.5t-64.5 -110.5t-96.5 -72t-121.5 -42h-2v108q29 10 58.5 23.5t53.5 39.5t40 66.5t20 106.5h-172zM188 750v299h308v-299h-308z" />
<glyph unicode="&#x3c;" horiz-adv-x="1196" d="M78 426v184l1040 443v-222l-743 -313l743 -313v-221z" />
<glyph unicode="=" horiz-adv-x="1196" d="M82 178v230h1032v-230h-1032zM82 629v229h1032v-229h-1032z" />
<glyph unicode="&#x3e;" horiz-adv-x="1196" d="M78 -16v221l743 313l-743 313v222l1040 -443v-184z" />
<glyph unicode="?" horiz-adv-x="1251" d="M123 1010q0 133 45 225t116.5 148.5t158.5 81t171 24.5q31 0 82.5 -4t108.5 -19.5t117.5 -44t107.5 -77t78 -120t31 -171.5q0 -61 -16.5 -112.5t-48.5 -96.5t-78 -85t-105 -83q-33 -25 -56.5 -45.5t-39 -48t-22.5 -64.5t-7 -92h-270q0 74 6 129t27.5 102.5t62.5 91.5 t113 93q59 41 92.5 90t33.5 112q0 59 -19 98.5t-48 63t-63.5 32.5t-67.5 9q-70 0 -112 -23.5t-64.5 -58.5t-31.5 -75.5t-13 -77.5v-2h-289zM487 0v289h299v-289h-299z" />
<glyph unicode="@" horiz-adv-x="1996" d="M242 735q0 164 62.5 305.5t170 246t251.5 163.5t306 59q139 0 269.5 -45t230.5 -128t160.5 -199.5t60.5 -259.5q0 -166 -61.5 -280t-146.5 -184.5t-173 -101t-141 -30.5q-45 0 -79 26.5t-38 81.5l-4 2q-41 -45 -98.5 -77.5t-116.5 -32.5q-68 0 -127 28.5t-104.5 77.5 t-72 113.5t-26.5 136.5q0 96 32 187t89 162t138 114t180 43q78 0 140 -31t107 -102l27 108h180l-119 -522q-4 -18 -9 -42t-5 -44q0 -18 7 -30.5t24 -12.5q41 0 82 24.5t74.5 71.5t54 113.5t20.5 150.5q0 125 -43 221.5t-118.5 163t-177 100.5t-220.5 34q-133 0 -240.5 -47.5 t-183.5 -130.5t-118 -194.5t-42 -242.5q0 -137 46.5 -248.5t127 -191.5t193.5 -123t246 -43q129 0 238.5 45t191.5 121h182q-109 -160 -270.5 -245t-354.5 -85q-166 0 -312 58.5t-254.5 162t-172 244.5t-63.5 309zM786 668q0 -80 42 -131.5t118 -51.5q55 0 99.5 26t77 66.5 t50 91t17.5 101.5q0 76 -46 125t-118 49q-53 0 -97 -25.5t-76 -65.5t-49.5 -89t-17.5 -96z" />
<glyph unicode="A" horiz-adv-x="1478" d="M41 0l524 1470h355l518 -1470h-334l-94 303h-543l-102 -303h-324zM549 557h375l-183 582h-4z" />
<glyph unicode="B" horiz-adv-x="1478" d="M156 0v1470h714q135 0 223.5 -37.5t138.5 -94t70.5 -122t20.5 -122.5q0 -80 -19.5 -132.5t-47 -86t-59.5 -52t-54 -30.5q68 -25 111.5 -64t69.5 -86t36 -99t10 -108q0 -88 -33.5 -167t-93.5 -136q-31 -31 -65.5 -55.5t-86 -42t-126 -26.5t-187.5 -9h-622zM451 254h376 q113 0 174.5 51t61.5 164q0 49 -19.5 83t-50 55.5t-70.5 30.5t-81 9h-391v-393zM451 895h360q92 0 154.5 38t62.5 126q0 92 -60.5 125t-164.5 33h-352v-322z" />
<glyph unicode="C" horiz-adv-x="1478" d="M90 733q0 193 52.5 338.5t143.5 242.5t215 146t265 49q166 0 282.5 -51t193.5 -128t115 -168t44 -173h-307q-10 33 -25.5 77t-51.5 83t-95.5 66.5t-153.5 27.5q-55 0 -118.5 -21.5t-119 -79t-91.5 -157.5t-36 -256q0 -98 20.5 -189t64.5 -161t113 -111t167 -41 q129 0 213 71t113 206h307q-23 -121 -74 -220.5t-131 -171t-188.5 -111.5t-245.5 -40q-147 0 -270 49t-212.5 146.5t-139.5 242t-50 334.5z" />
<glyph unicode="D" horiz-adv-x="1478" d="M156 0v1470h649q123 0 216 -32.5t159.5 -87t109.5 -126t67.5 -149.5t35 -156.5t10.5 -148.5q0 -78 -11.5 -166t-39 -174t-72.5 -164t-113.5 -137t-161 -94t-212.5 -35h-637zM457 254h299q94 0 157.5 43t102.5 112.5t56.5 158.5t17.5 180q0 162 -35 256t-85 141 t-109.5 59.5t-108.5 12.5h-295v-963z" />
<glyph unicode="E" horiz-adv-x="1366" d="M156 0v1470h1081v-260h-780v-309h717v-260h-717v-381h815v-260h-1116z" />
<glyph unicode="F" horiz-adv-x="1251" d="M156 0v1470h1046v-260h-739v-331h647v-261h-647v-618h-307z" />
<glyph unicode="G" horiz-adv-x="1593" d="M90 731q0 150 42 290t130 248.5t223.5 174t319.5 65.5h4q168 0 288 -49t197.5 -122.5t115.5 -160.5t44 -163h-307q0 20 -19.5 61t-59.5 81t-100.5 69.5t-142.5 29.5t-158.5 -29.5t-135 -93t-93.5 -164t-35 -241.5q0 -152 38 -249t98.5 -154.5t137.5 -80t154 -22.5 q25 0 75 9.5t104.5 42t103.5 97t74 175.5h-342v248h614v-793h-205l-30 184q-29 -35 -67 -73.5t-91 -71.5t-127 -55.5t-174 -22.5q-133 0 -255 48t-216 143.5t-149.5 240t-55.5 338.5z" />
<glyph unicode="H" horiz-adv-x="1478" d="M145 0v1470h308v-557h573v557h307v-1470h-307v659h-573v-659h-308z" />
<glyph unicode="I" horiz-adv-x="569" d="M131 0v1470h307v-1470h-307z" />
<glyph unicode="J" d="M45 555h287q0 -86 5 -150.5t23.5 -107.5t54.5 -64.5t97 -21.5q59 0 94 17.5t52.5 47t21.5 68.5t4 82v1044h307v-1044q0 -236 -116.5 -349.5t-339.5 -113.5q-123 0 -207 24.5t-138.5 66.5t-84 99.5t-43 123t-15.5 137t-2 141.5z" />
<glyph unicode="K" horiz-adv-x="1478" d="M178 0v1470h307v-598l562 598h397l-600 -602l635 -868h-396l-454 645l-144 -147v-498h-307z" />
<glyph unicode="L" horiz-adv-x="1251" d="M156 0v1470h307v-1204h731v-266h-1038z" />
<glyph unicode="M" horiz-adv-x="1705" d="M141 0v1470h449l266 -1159h4l262 1159h445v-1470h-287v1229h-4l-275 -1229h-301l-268 1229h-4v-1229h-287z" />
<glyph unicode="N" horiz-adv-x="1478" d="M141 0v1470h324l584 -1024h4v1024h286v-1470h-307l-600 1049h-4v-1049h-287z" />
<glyph unicode="O" horiz-adv-x="1593" d="M90 735q0 172 39 297t101.5 211t140.5 138.5t156.5 81t149.5 37.5t120 9t119.5 -9t149.5 -37.5t156.5 -81t140 -138.5t101.5 -211t39 -297t-39 -297t-101.5 -211t-140 -138t-156.5 -80.5t-149.5 -38t-119.5 -9.5t-120 9.5t-149.5 38t-156.5 80.5t-140.5 138t-101.5 211 t-39 297zM397 735q0 -154 39 -254t98.5 -157.5t130 -80t132.5 -22.5q61 0 131.5 22.5t130 80t98.5 158t39 253.5q0 154 -39 254.5t-98.5 157.5t-130 79.5t-131.5 22.5t-132 -22.5t-130.5 -79.5t-98.5 -157.5t-39 -254.5z" />
<glyph unicode="P" horiz-adv-x="1366" d="M156 0v1470h671q106 0 191.5 -32.5t144 -94t90 -148.5t31.5 -196q0 -49 -17.5 -128.5t-68.5 -155.5t-143 -130.5t-240 -54.5h-352v-530h-307zM463 784h285q86 0 132 27t67.5 63.5t25.5 75.5t4 64q0 109 -63.5 156t-206.5 47h-244v-433z" />
<glyph unicode="Q" horiz-adv-x="1593" d="M90 735q0 172 39 297t101.5 211t140.5 138.5t156.5 81t149.5 37.5t120 9t119.5 -9t149.5 -37.5t156.5 -81t140 -138.5t101.5 -211t39 -297q0 -182 -43 -310t-110 -214l159 -152l-161 -165l-174 165q-53 -31 -106.5 -50t-103 -29.5t-92.5 -14.5t-75 -4q-49 0 -120 9.5 t-149.5 38t-156.5 80.5t-140.5 138t-101.5 211t-39 297zM397 735q0 -154 39 -254t98.5 -157.5t130 -80t132.5 -22.5q39 0 82 8.5t84 30.5l-148 139l158 166l155 -145q31 57 49.5 134t18.5 181q0 154 -39 254.5t-98.5 157.5t-130 79.5t-131.5 22.5t-132 -22.5t-130.5 -79.5 t-98.5 -157.5t-39 -254.5z" />
<glyph unicode="R" horiz-adv-x="1478" d="M156 0v1470h743q147 0 237.5 -47t140.5 -113.5t67.5 -137t17.5 -117.5q0 -123 -58.5 -218.5t-168.5 -131.5q45 -20 79.5 -42t58 -62t35.5 -103.5t13 -165.5q0 -80 1 -133.5t7 -85t19.5 -49t37.5 -25.5v-39h-339q-16 53 -24.5 117.5t-8.5 179.5q0 76 -5 128t-29 86t-72 49 t-134 15h-317v-575h-301zM457 823h360q121 0 179.5 45t58.5 156q0 29 -8.5 62.5t-32 62.5t-65.5 48.5t-109 19.5h-383v-394z" />
<glyph unicode="S" horiz-adv-x="1366" d="M80 453h295q0 -31 11 -72t44 -78t94.5 -62.5t161.5 -25.5q55 0 109.5 8t98.5 28.5t71.5 57.5t27.5 97q0 43 -19.5 71.5t-55 48t-85 33.5t-106.5 29l-158 37q-90 20 -174 44.5t-148.5 70.5t-104.5 121t-40 196q0 41 9.5 90t32 99t62.5 98.5t103.5 84t151.5 58t207 22.5 q168 0 278.5 -49t176 -120.5t92 -154.5t26.5 -151h-295q-4 25 -13 63t-40 72.5t-89.5 60t-158.5 25.5q-43 0 -89 -9t-83 -29.5t-60.5 -54.5t-23.5 -83q0 -43 15.5 -70.5t39 -44t51 -24.5t50.5 -14l358 -88q76 -18 145.5 -45t123 -72t85 -112.5t31.5 -166.5 q0 -111 -33.5 -189.5t-88 -131.5t-120 -85t-130 -48.5t-120 -21.5t-87.5 -5q-201 0 -325 51t-191.5 126t-90 161t-22.5 154z" />
<glyph unicode="T" horiz-adv-x="1251" d="M29 1210v260h1196v-260h-445v-1210h-307v1210h-444z" />
<glyph unicode="U" horiz-adv-x="1478" d="M147 496v974h314v-954q0 -78 20.5 -133t56 -91t84 -53.5t101.5 -17.5q160 0 228.5 73t68.5 208v968h313v-956q0 -145 -42 -249.5t-120.5 -172t-190.5 -99.5t-251 -32q-51 0 -111.5 7t-123 27.5t-123 54.5t-109.5 89q-59 68 -84.5 157t-30.5 200z" />
<glyph unicode="V" horiz-adv-x="1366" d="M39 1470h330l315 -1114h4l320 1114h319l-500 -1470h-292z" />
<glyph unicode="W" horiz-adv-x="1933" d="M33 1470h327q47 -201 81 -347t57.5 -251.5t39 -177t25.5 -124t17.5 -93.5t13.5 -82h4q10 57 21.5 124t33 181.5t56 298t94.5 471.5h325q43 -203 74 -347t52.5 -247.5t36 -174t24.5 -123t17 -94.5t16 -89h4q6 35 13 72t17.5 89t26.5 126t41 181.5t59.5 256t81.5 350.5h312 l-414 -1470h-295q-39 180 -66.5 315.5t-49 239.5t-37 183t-28 146.5t-23.5 129t-23 133.5h-4q-10 -72 -21.5 -131.5t-23 -124t-26.5 -140t-36.5 -180t-51.5 -244t-69 -327.5h-286z" />
<glyph unicode="X" horiz-adv-x="1366" d="M29 0l475 752l-449 718h367l262 -475l268 475h355l-449 -706l479 -764h-374l-279 502l-297 -502h-358z" />
<glyph unicode="Y" horiz-adv-x="1366" d="M31 1470h362l305 -639l291 639h348l-491 -919v-551h-307v555z" />
<glyph unicode="Z" horiz-adv-x="1251" d="M51 0v260l760 950h-739v260h1124v-241l-770 -969h774v-260h-1149z" />
<glyph unicode="[" horiz-adv-x="681" d="M129 -401v1880h504v-197h-254v-1487h254v-196h-504z" />
<glyph unicode="\" horiz-adv-x="569" d="M-68 1509h240l465 -1548h-240z" />
<glyph unicode="]" horiz-adv-x="681" d="M49 -205h254v1487h-254v197h504v-1880h-504v196z" />
<glyph unicode="^" horiz-adv-x="1196" d="M127 662l369 768h204l369 -768h-225l-246 538l-248 -538h-223z" />
<glyph unicode="_" d="M0 -154h1139v-102h-1139v102z" />
<glyph unicode="`" horiz-adv-x="681" d="M-47 1536h315l193 -299h-207z" />
<glyph unicode="a" d="M59 289q0 80 23.5 140t67 103t101.5 69t126 36l258 39q33 4 66.5 21.5t33.5 64.5q0 45 -19.5 70.5t-47 38t-61.5 15.5t-60 3q-53 0 -87 -14.5t-52.5 -37t-26.5 -49t-10 -51.5h-277q12 125 58.5 201t114 116t149.5 52t166 12q57 0 131.5 -11t142.5 -45t114 -96.5 t46 -162.5v-590q0 -96 18.5 -129t44.5 -41v-43h-309q-6 18 -10 32.5t-7 28t-5.5 29.5t-4.5 39q-25 -25 -55.5 -53.5t-72.5 -51t-96 -38t-128 -15.5q-61 0 -120.5 17.5t-106.5 56.5t-76 99.5t-29 144.5zM346 307q0 -37 13.5 -62.5t33 -41t43 -21.5t43.5 -6q47 0 93 15.5 t82 43t58.5 67.5t22.5 89v139q-23 -16 -63.5 -30.5t-130.5 -28.5q-41 -6 -76 -16.5t-61.5 -27.5t-42 -46t-15.5 -74z" />
<glyph unicode="b" horiz-adv-x="1251" d="M125 0v1470h287v-522h4q16 27 41.5 56.5t63.5 55t89.5 42t120.5 16.5q90 0 172 -34.5t144.5 -104.5t99.5 -175.5t37 -246.5q0 -113 -27 -218.5t-82 -187t-142 -131t-208 -49.5q-90 0 -176 37t-139 129h-4v-137h-281zM399 520q0 -61 14.5 -117.5t45 -99.5t79 -69.5 t115.5 -26.5q70 0 115 33.5t71.5 83t38 107t11.5 106.5q0 63 -12.5 123.5t-41 107.5t-75.5 74.5t-115 27.5q-74 0 -122 -30.5t-75.5 -79.5t-38 -111.5t-10.5 -128.5z" />
<glyph unicode="c" d="M70 514q0 131 29.5 242.5t93 191.5t162 125t237.5 45q63 0 143 -17.5t151.5 -63.5t124 -128t62.5 -209h-291q-4 27 -15 57.5t-31.5 57.5t-52.5 44.5t-77 17.5h-14q-68 0 -112 -31t-69.5 -77t-35.5 -101.5t-10 -106.5q0 -45 4 -105.5t25.5 -115.5t65.5 -94t126 -39 q55 0 92 22.5t59.5 53t32.5 63.5t10 51h291q-2 -29 -12 -70.5t-32.5 -89t-58.5 -95.5t-90.5 -86t-129 -61.5t-175.5 -23.5q-154 0 -252 52.5t-153 133.5t-76.5 176t-21.5 181z" />
<glyph unicode="d" horiz-adv-x="1251" d="M70 557q0 141 36.5 246.5t99 175.5t144.5 104.5t172 34.5q70 0 121 -16.5t89 -42t63.5 -55t42.5 -56.5h4v522h286v-1470h-280v137h-4q-53 -92 -139.5 -129t-176.5 -37q-121 0 -208 49.5t-142 131t-81.5 187t-26.5 218.5zM365 537q0 -49 11 -106.5t37.5 -107t71.5 -83 t115 -33.5q68 0 116 26.5t78.5 69.5t45 99.5t14.5 117.5q0 66 -11.5 128.5t-39 111.5t-74.5 79.5t-121 30.5q-68 0 -115 -27.5t-75.5 -74.5t-40.5 -107.5t-12 -123.5z" />
<glyph unicode="e" d="M47 567q0 33 5 86.5t23.5 114.5t53.5 123.5t93.5 113t143.5 82t203 31.5q80 0 170 -23.5t166 -90t126 -183t50 -303.5v-51h-747q2 -31 10 -76t33.5 -88t76 -72.5t136.5 -29.5q59 0 113.5 29.5t70.5 88.5h295q-29 -98 -81 -164.5t-117.5 -107.5t-138.5 -58.5t-142 -17.5 q-115 0 -214.5 30t-172 99.5t-114.5 184t-42 282.5zM342 653h444q-6 66 -28.5 110t-53 70.5t-67.5 38t-72 11.5q-102 0 -156.5 -60.5t-66.5 -169.5z" />
<glyph unicode="f" horiz-adv-x="681" d="M20 885v205h158v88q0 170 86 240.5t234 70.5q63 0 96 -1t51 -3v-232h-80q-37 0 -57.5 -6t-29.5 -20.5t-11 -38t-2 -55.5v-43h186v-205h-186v-885h-287v885h-158z" />
<glyph unicode="g" horiz-adv-x="1251" d="M82 557q0 141 37 246.5t99.5 175.5t144 104.5t172.5 34.5q76 0 130 -19.5t92 -49t61.5 -62.5t35.5 -59h4v162h275v-1033q0 -47 -3.5 -102t-20.5 -111.5t-51 -107.5t-95.5 -91t-154.5 -64.5t-226 -24.5q-84 0 -167 18t-150.5 58t-110.5 102.5t-48 148.5h312 q4 -20 13 -40.5t29.5 -36t58.5 -24.5t99 -9q117 0 172.5 58t55.5 192v131l-4 4q-18 -31 -42 -60.5t-57.5 -53.5t-81 -37t-110.5 -13q-98 0 -184 34.5t-148.5 104.5t-99.5 175.5t-37 248.5zM377 539q0 -53 11 -106.5t38 -97.5t71 -71.5t107 -27.5q74 0 121 28.5t74.5 73.5 t38 101.5t10.5 111.5q0 66 -16.5 124t-47 101t-76.5 68.5t-106 25.5q-41 0 -81 -16t-71.5 -54t-52 -102.5t-20.5 -158.5z" />
<glyph unicode="h" horiz-adv-x="1251" d="M133 0v1470h287v-522h4q14 33 43 64.5t70 54.5t92 37t110 14q80 0 149.5 -23.5t120 -69.5t80 -113.5t29.5 -157.5v-754h-287v662q0 31 -3 67.5t-21.5 69t-56 55.5t-105.5 23q-96 0 -160.5 -63.5t-64.5 -188.5v-625h-287z" />
<glyph unicode="i" horiz-adv-x="569" d="M141 0v1090h287v-1090h-287zM141 1219v266h287v-266h-287z" />
<glyph unicode="j" horiz-adv-x="569" d="M6 -209h51q10 0 24.5 2t28 11.5t22.5 30t9 56.5v1199h287v-1205q0 -106 -23.5 -170.5t-68.5 -98.5t-110.5 -44t-147.5 -10h-72v229zM141 1219v266h287v-266h-287z" />
<glyph unicode="k" d="M141 0v1470h287v-794l360 414h353l-385 -422l395 -668h-344l-260 467l-119 -123v-344h-287z" />
<glyph unicode="l" horiz-adv-x="569" d="M141 0v1470h287v-1470h-287z" />
<glyph unicode="m" horiz-adv-x="1820" d="M131 0v1090h275v-160h4q14 27 36.5 59.5t59.5 61t89 48t124 19.5q59 0 103 -11t80 -32.5t63.5 -54.5t56.5 -76q14 20 36.5 50t57.5 57.5t83 47t114 19.5q80 0 149.5 -23.5t119.5 -69.5t80 -113.5t30 -157.5v-754h-287v662q0 121 -46 168t-110 47q-109 0 -151.5 -63.5 t-42.5 -160.5v-653h-287v655q0 35 -3 74t-18.5 72t-51.5 54.5t-99 21.5q-51 0 -85 -16.5t-54.5 -45.5t-29.5 -67.5t-9 -83.5v-664h-287z" />
<glyph unicode="n" horiz-adv-x="1251" d="M133 0v1090h275v-160h4q14 25 37.5 57.5t62.5 61t94.5 49t132.5 20.5q80 0 149.5 -23.5t120 -69.5t80 -113.5t29.5 -157.5v-754h-287v662q0 31 -3 67.5t-21.5 69t-56 55.5t-105.5 23q-96 0 -160.5 -63.5t-64.5 -188.5v-625h-287z" />
<glyph unicode="o" horiz-adv-x="1251" d="M70 545q0 147 46 254.5t122.5 178.5t177 105.5t211.5 34.5t211 -34.5t177 -105.5t123 -178.5t46 -254.5t-46 -256t-123 -179.5t-177.5 -104.5t-210.5 -34q-111 0 -211.5 34t-177 104.5t-122.5 179t-46 256.5zM365 545q0 -53 10 -111.5t37.5 -108t79 -81t135.5 -31.5 q82 0 134 31.5t79.5 81t38 108t10.5 111.5q0 51 -10.5 109.5t-38 107.5t-79.5 82t-134 33q-84 0 -135.5 -33t-79 -82t-37.5 -107.5t-10 -109.5z" />
<glyph unicode="p" horiz-adv-x="1251" d="M127 -424v1514h274v-158h5q20 33 45.5 65.5t64.5 59t91 44t124 17.5q90 0 172 -34.5t144.5 -104.5t99.5 -175.5t37 -246.5q0 -113 -27 -218.5t-82 -187t-142 -131t-208 -49.5q-76 0 -128 17.5t-88 44t-57.5 55.5t-33.5 51h-4v-563h-287zM401 520q0 -61 13.5 -117.5 t44 -99.5t79 -69.5t115.5 -26.5q70 0 115 33.5t71.5 83t38 106.5t11.5 107q0 63 -12.5 123.5t-41 107.5t-75.5 74.5t-115 27.5q-74 0 -121 -30.5t-74.5 -79.5t-38 -111.5t-10.5 -128.5z" />
<glyph unicode="q" horiz-adv-x="1251" d="M70 522q0 113 26.5 220.5t85 191.5t148.5 134t217 50q70 0 121 -19.5t87 -49t58.5 -62.5t38.5 -59h4v162h274v-1514h-286v559h-4q-45 -84 -123 -124t-187 -40q-129 0 -217 53.5t-142 135.5t-77.5 179t-23.5 183zM365 524q0 -147 58 -229t187 -82q102 0 171 79t69 247 q0 113 -29.5 179t-70.5 100t-82 43t-64 9q-41 0 -84 -15t-77.5 -54t-56 -106t-21.5 -171z" />
<glyph unicode="r" horiz-adv-x="796" d="M131 0v1090h275v-189h4q23 41 47 80t59 69.5t81 49t112 18.5q14 0 27.5 -1t27.5 -3v-291q-18 4 -41 4h-41q-84 0 -135 -23.5t-80 -61t-39 -84t-10 -91.5v-567h-287z" />
<glyph unicode="s" d="M61 348h295q0 -70 51.5 -115t186.5 -45q55 0 91 12.5t55.5 29t27.5 36t8 35.5q0 45 -50 68.5t-125 40t-163 34t-162.5 52t-125 95t-50.5 163.5q0 59 20.5 123.5t72 118t136.5 88t212 34.5q80 0 162.5 -13t152.5 -52t118 -110t56 -185h-280q-4 27 -13.5 52.5t-30 46 t-56.5 32.5t-93 12q-59 0 -94 -10t-53.5 -25.5t-23.5 -34t-5 -36.5q0 -43 50 -65.5t126 -39t165 -34t165 -53.5t126 -96.5t50 -160.5q0 -119 -50 -192.5t-124 -113.5t-157 -54.5t-146 -14.5q-92 0 -185.5 18.5t-167 61.5t-122 116t-50.5 181z" />
<glyph unicode="t" horiz-adv-x="681" d="M20 885v205h148v294h287v-294h178v-205h-178v-592q0 -25 2 -41t13 -26.5t35.5 -15.5t67.5 -5q14 0 28.5 1t31.5 3v-217q-35 -2 -68 -3t-67 -1h-37q-92 0 -149.5 17.5t-89.5 48t-43 73.5t-11 96v662h-148z" />
<glyph unicode="u" horiz-adv-x="1251" d="M135 373v717h287v-676q0 -63 16.5 -102.5t43 -61t60 -29.5t66.5 -8q35 0 74 11.5t71.5 40t54 75.5t21.5 121v629h287v-1090h-274v154h-4q-49 -88 -133 -135.5t-199 -47.5q-80 0 -148.5 23.5t-118 73t-77 125t-27.5 180.5z" />
<glyph unicode="v" d="M27 1090h319l225 -803h4l232 803h305l-393 -1090h-301z" />
<glyph unicode="w" horiz-adv-x="1593" d="M20 1090h306l170 -783h4l153 783h289l164 -783h4l170 783h295l-313 -1090h-295l-170 795h-4l-170 -795h-295z" />
<glyph unicode="x" d="M31 0l370 555l-356 535h348l185 -318l180 318h338l-359 -535l371 -555h-354l-189 328l-188 -328h-346z" />
<glyph unicode="y" d="M20 1090h320l233 -803h5l223 803h303l-375 -1072q-51 -152 -88 -241.5t-80 -138t-101.5 -62.5t-152.5 -14q-29 0 -63.5 1t-65.5 3v229q10 -2 23.5 -3t31.5 -1q39 0 70 4t53.5 21.5t39 50.5t26.5 88z" />
<glyph unicode="z" horiz-adv-x="1024" d="M41 0v223l559 637h-520v230h883v-236l-551 -618h571v-236h-942z" />
<glyph unicode="{" horiz-adv-x="796" d="M98 444v189q20 0 53 6t64 23.5t53.5 48t22.5 77.5v410q0 72 26.5 125t68.5 88t92 51.5t100 16.5h170v-181h-93q-39 0 -61.5 -12t-34.5 -31.5t-15 -44t-3 -47.5v-401q-8 -66 -36 -108t-63.5 -66.5t-72.5 -34.5t-62 -12v-4q25 -2 62 -12.5t72.5 -35t63 -66.5t36.5 -108 v-401q0 -23 3 -47.5t15 -44t34.5 -31.5t61.5 -12h93v-180h-170q-49 0 -99.5 16t-92.5 51t-68.5 88t-26.5 125v410q0 47 -22.5 77.5t-53.5 48t-63.5 23.5t-53.5 6z" />
<glyph unicode="|" horiz-adv-x="573" d="M172 -461v2048h229v-2048h-229z" />
<glyph unicode="}" horiz-adv-x="796" d="M49 -221h92q39 0 61.5 12t35 31.5t15.5 44t3 47.5v401q8 66 35.5 108t63.5 66.5t73 35t61 12.5v4q-25 2 -61.5 12t-72.5 34.5t-63.5 66.5t-35.5 108v401q0 23 -3 47.5t-15.5 44t-35 31.5t-61.5 12h-92v181h170q49 0 99.5 -16.5t92.5 -51.5t68.5 -88t26.5 -125v-410 q0 -47 21.5 -77.5t52 -48t63.5 -23.5t55 -6v-189q-23 0 -55.5 -6t-63 -23.5t-52 -48t-21.5 -77.5v-410q0 -72 -26.5 -125t-68.5 -88t-92.5 -51t-99.5 -16h-170v180z" />
<glyph unicode="~" horiz-adv-x="1196" d="M125 518q16 33 39.5 64.5t54.5 56.5t71 40t91 15q53 0 110.5 -19.5t116.5 -45.5q57 -25 112.5 -50.5t96.5 -25.5q31 0 56.5 13.5t47 35t40 48t36.5 52.5l74 -184q-23 -33 -48.5 -64.5t-55 -56t-67.5 -40t-85 -15.5q-57 0 -107.5 19.5t-101.5 48.5q-49 29 -106.5 51 t-128.5 22q-35 0 -60.5 -13t-47 -34.5t-37 -48.5t-27.5 -53z" />
<glyph unicode="&#xa1;" horiz-adv-x="681" d="M184 -6l82 688h152l82 -688v-375h-316v375zM193 801v289h299v-289h-299z" />
<glyph unicode="&#xa2;" d="M70 514q0 131 29.5 242.5t93 191.5t162 125t237.5 45q43 0 92 -6l49 174h107l-58 -201q51 -18 101.5 -47.5t90.5 -77t66.5 -111t32.5 -149.5h-291q-6 33 -21.5 72t-47.5 68l-178 -625q18 -8 51 -8q55 0 92 22.5t59.5 53t32.5 63.5t10 51h291q-2 -29 -12 -70.5t-32.5 -89 t-58.5 -95.5t-90.5 -86t-129 -61.5t-175.5 -23.5q-29 0 -54 2t-50 7l-63 -222h-107l70 246q-90 33 -147.5 91.5t-91.5 128t-47 145t-13 145.5zM365 561q0 -31 1 -70.5t9 -80.5t23.5 -79t43.5 -67l174 613h-24q-68 0 -112 -31t-69.5 -77t-35.5 -101.5t-10 -106.5z" />
<glyph unicode="&#xa3;" d="M57 657v123h119q-25 53 -41 91t-25.5 70t-13.5 61.5t-4 68.5q0 55 24.5 125t82 130t151.5 102t232 42q80 0 166 -20t157.5 -73.5t118.5 -145.5t51 -234h-268q-8 51 -19.5 96.5t-35 78t-64.5 51t-108 18.5q-59 0 -98.5 -20.5t-62 -50t-31.5 -61.5t-9 -56q0 -14 2 -29.5 t11 -43.5t29.5 -75t55.5 -125h293v-123h-244q4 -29 7.5 -54t3.5 -54q0 -10 -1 -32.5t-9.5 -53.5t-27 -67t-50.5 -74q-12 -16 -46 -47t-75 -64l4 -4q66 27 121 40t110 13q45 0 78 -6t68 -16q29 -10 59.5 -19.5t48.5 -9.5q53 0 111.5 24.5t95.5 49.5l84 -224 q-55 -35 -133 -63.5t-178 -28.5q-20 0 -47 3t-54.5 8.5t-53.5 12.5t-44 13q-66 23 -109 34t-90 11q-20 0 -38.5 -3t-43 -10t-58.5 -21.5t-83 -37.5l-110 199q12 4 49 30.5t76.5 67.5t70.5 93.5t31 107.5q0 45 -15.5 99.5t-31.5 82.5h-189z" />
<glyph unicode="&#xa4;" d="M-6 291l201 201q-29 47 -46.5 107t-17.5 132q0 68 18.5 131.5t45.5 104.5l-201 200l135 136l201 -201q47 29 109.5 48t129.5 19q72 0 133.5 -19.5t106.5 -47.5l201 201l135 -136l-201 -200q29 -45 48.5 -106.5t19.5 -129.5q0 -72 -19.5 -133t-48.5 -106l201 -201 l-135 -135l-201 200q-45 -29 -106.5 -48t-133.5 -19q-68 0 -130 19.5t-109 47.5l-201 -200zM360 731q0 -98 56.5 -164.5t152.5 -66.5t154.5 66.5t58.5 164.5t-58 162.5t-155 64.5q-96 0 -152.5 -64.5t-56.5 -162.5z" />
<glyph unicode="&#xa5;" d="M-18 1430h307l295 -603l282 603h291l-307 -601h274v-122h-338l-77 -154h415v-123h-417v-430h-261v430h-415v123h415l-81 154h-334v122h268z" />
<glyph unicode="&#xa6;" horiz-adv-x="573" d="M172 -307v717h229v-717h-229zM172 717v717h229v-717h-229z" />
<glyph unicode="&#xa7;" d="M70 614q0 96 55 161t135 110q-35 33 -70.5 91t-35.5 146q0 70 27.5 136.5t79.5 117.5t129 82t177 31q72 0 143.5 -17.5t130 -60.5t97.5 -114.5t43 -182.5h-260q-4 72 -43 115t-117 43q-72 0 -109.5 -37t-37.5 -78q0 -35 17.5 -60.5t60.5 -47.5l331 -166 q51 -25 95.5 -54.5t78 -68.5t53 -90.5t19.5 -120.5q0 -18 -10 -54t-32.5 -77t-59.5 -80t-93 -64q18 -14 40 -37.5t41.5 -56.5t32.5 -75t13 -93q0 -98 -37.5 -170.5t-99 -121t-141.5 -73t-164 -24.5q-137 0 -221 46t-130 108.5t-62.5 127t-16.5 101.5h270q2 -29 12.5 -58.5 t30 -53t53 -39t85.5 -15.5q47 0 75.5 17.5t45 40t21.5 47t5 41.5q0 53 -31.5 81.5t-89.5 57.5l-313 160q-55 27 -96 57.5t-70 68.5t-43 87t-14 116zM311 666q0 -47 27 -76t68 -51l321 -172q41 23 64.5 55.5t23.5 79.5t-36 77.5t-81 53.5l-299 151q-25 -8 -41 -24.5 t-26 -33.5t-15.5 -33.5t-5.5 -26.5z" />
<glyph unicode="&#xa8;" horiz-adv-x="681" d="M12 1257v236h258v-236h-258zM412 1257v236h258v-236h-258z" />
<glyph unicode="&#xa9;" horiz-adv-x="1509" d="M-23 737q0 184 63.5 327.5t171 242t249 150.5t295.5 52t294 -52t247.5 -150.5t172 -242t64.5 -327.5t-64.5 -327.5t-172 -243.5t-248 -152.5t-293.5 -52.5q-154 0 -295.5 52.5t-249 152.5t-171 243.5t-63.5 327.5zM201 737q0 -133 43 -243.5t117.5 -188.5t175 -121 t215.5 -43h4v-2q113 0 214 43t177 122t120 188.5t44 244.5q0 133 -44 243t-120 187.5t-177.5 120.5t-213.5 43q-115 0 -216.5 -43t-177 -120.5t-118.5 -187.5t-43 -243zM360 743q0 94 29 176t84 140.5t133 92.5t176 34q139 0 238.5 -79t124.5 -235h-176q-14 72 -67.5 104 t-119.5 32q-100 0 -155.5 -71t-55.5 -189q0 -57 15.5 -106.5t44 -86.5t68.5 -57.5t87 -20.5q76 0 126.5 36t56.5 108h184q-12 -78 -46 -137.5t-83 -100.5t-109.5 -62.5t-128.5 -21.5q-96 0 -175 34t-134 94t-86 141t-31 175z" />
<glyph unicode="&#xaa;" horiz-adv-x="757" d="M45 1012q0 96 59.5 148t149.5 65l168 22q23 4 44 11.5t21 35.5q0 25 -12 39.5t-30.5 21.5t-40 8t-39.5 1q-35 0 -56.5 -8t-34 -20.5t-17.5 -27t-7 -28.5h-178q8 76 37.5 121t72.5 69.5t96.5 31.5t108.5 7q37 0 86 -7t92 -27.5t73 -57.5t30 -98v-354q0 -57 13 -77t30 -24 v-26h-201q-8 23 -10 36t-6 41q-16 -16 -36 -32.5t-47.5 -29.5t-63.5 -22.5t-83 -9.5q-41 0 -80 10.5t-69.5 34t-50 59.5t-19.5 87zM238 1022q0 -43 27.5 -59.5t56.5 -16.5q61 0 113 35t52 94v82q-14 -10 -40.5 -18.5t-86.5 -16.5q-53 -8 -87.5 -27.5t-34.5 -72.5z" />
<glyph unicode="&#xab;" d="M180 451v245l342 295v-237l-205 -181l205 -180v-237zM616 451v245l342 295v-237l-204 -181l204 -180v-237z" />
<glyph unicode="&#xac;" horiz-adv-x="1196" d="M82 629v229h1032v-637h-229v408h-803z" />
<glyph unicode="&#xad;" horiz-adv-x="681" d="M55 440v267h572v-267h-572z" />
<glyph unicode="&#xae;" horiz-adv-x="1509" d="M-23 735q0 184 63.5 327.5t171 243t249 151.5t295.5 52t294 -52t247.5 -151.5t171 -243t63.5 -327.5t-63.5 -327.5t-171 -242.5t-248 -151.5t-293.5 -52.5q-154 0 -295.5 52.5t-249 151.5t-171 242.5t-63.5 327.5zM201 735q0 -133 43 -242.5t117.5 -187.5t175 -121 t215.5 -43h4v-2q113 0 213 43t176 121t120 188.5t44 243.5t-44 242.5t-120 187.5t-176.5 121t-212.5 43q-115 0 -216.5 -43t-177 -121t-118.5 -187.5t-43 -242.5zM449 319v834h311q162 0 252 -54.5t90 -197.5q0 -57 -15.5 -97t-43 -65.5t-64.5 -39t-78 -15.5l213 -365h-211 l-192 351h-84v-351h-178zM627 811h157q59 0 93 19.5t34 89.5q0 33 -15 51t-38.5 27.5t-52.5 11.5t-53 2h-125v-201z" />
<glyph unicode="&#xaf;" horiz-adv-x="681" d="M-12 1237v152h706v-152h-706z" />
<glyph unicode="&#xb0;" horiz-adv-x="819" d="M117 1165q0 61 22.5 114.5t62.5 93.5t93 62.5t115 22.5q61 0 114.5 -22.5t93 -62.5t62 -93t22.5 -115q0 -61 -22.5 -114.5t-62 -93t-93 -62.5t-114.5 -23t-114.5 23t-93.5 62.5t-62.5 93t-22.5 114.5zM231 1165q0 -74 52.5 -126t126.5 -52t126 52.5t52 125.5 q0 74 -52.5 126t-125.5 52q-74 0 -126.5 -52t-52.5 -126z" />
<glyph unicode="&#xb1;" horiz-adv-x="1196" d="M82 0v229h1032v-229h-1032zM82 551v229h401v256h230v-256h401v-229h-401v-258h-230v258h-401z" />
<glyph unicode="&#xb2;" horiz-adv-x="681" d="M18 580q2 39 9.5 79.5t29 83.5t62.5 89.5t110 93.5q63 43 108.5 74.5t74 60.5t42 57.5t13.5 65.5q0 4 1 6t1 4q0 31 -30.5 64.5t-92.5 33.5q-49 0 -76.5 -16t-41 -40t-16.5 -49.5t-3 -43.5h-180q0 106 36.5 168.5t87 94.5t102.5 40t83 8q68 0 127 -18.5t102 -54t69 -87 t26 -116.5q0 -57 -16.5 -101.5t-43.5 -79t-58.5 -60.5t-62.5 -44q-92 -55 -137 -91t-61 -54h381v-168h-646z" />
<glyph unicode="&#xb3;" horiz-adv-x="681" d="M16 846h183q0 -18 4 -42t17 -45.5t41 -35.5t75 -14q57 0 94 27.5t37 99.5q0 43 -19.5 67.5t-49 36.5t-65.5 14t-69 2v131h31q20 0 46 2.5t49.5 12.5t38.5 31.5t15 62.5q0 12 -3 29.5t-14 34t-32.5 28.5t-60.5 12q-47 0 -72.5 -16t-38 -37.5t-14.5 -43t-2 -29.5h-174 q0 123 76.5 201.5t236.5 78.5q47 0 99.5 -12t95.5 -41t70.5 -75t27.5 -116t-36 -110.5t-77 -57.5v-4q12 -4 36 -14t47.5 -33.5t41 -61.5t17.5 -93q0 -61 -23.5 -112.5t-65.5 -89.5t-101.5 -58.5t-131.5 -20.5q-35 0 -90 7t-108.5 36t-92.5 87t-39 161z" />
<glyph unicode="&#xb4;" horiz-adv-x="681" d="M221 1237l193 299h315l-301 -299h-207z" />
<glyph unicode="&#xb6;" d="M-16 1065q0 109 37.5 180.5t105.5 113.5t159 58.5t197 16.5h621v-1825h-230v1651h-206v-1651h-230v1102q-219 0 -336.5 94t-117.5 260z" />
<glyph unicode="&#xb7;" horiz-adv-x="569" d="M119 518q0 70 48 118t118 48t118 -48t48 -118q0 -68 -47.5 -117t-118.5 -49q-72 0 -119 49t-47 117z" />
<glyph unicode="&#xb8;" horiz-adv-x="681" d="M12 -416l45 99q41 -12 83 -22.5t75 -10.5t64.5 20.5t31.5 59.5q0 35 -24.5 54t-55.5 19q-16 0 -38.5 -5t-42.5 -11l-44 41l117 172h117l-78 -113q18 4 30.5 6.5t31.5 2.5q20 0 51 -7.5t59.5 -25t48 -48t19.5 -79.5q0 -90 -71 -146.5t-183 -56.5q-29 0 -53.5 2t-51 8 t-57.5 15.5t-74 25.5z" />
<glyph unicode="&#xb9;" horiz-adv-x="681" d="M53 1176v127h27q68 0 112 14t69.5 36.5t36.5 49.5t13 51h174v-874h-206v596h-226z" />
<glyph unicode="&#xba;" horiz-adv-x="747" d="M12 1165q0 59 20.5 121t63.5 111t111.5 80.5t167.5 31.5q98 0 166.5 -31.5t111.5 -80.5t63.5 -111t20.5 -121t-20.5 -120.5t-63.5 -110.5t-111.5 -81t-166.5 -32t-167 32t-112 81t-63.5 110.5t-20.5 120.5zM213 1165q0 -80 42 -138t120 -58t120 58t42 138t-42 138.5 t-120 58.5t-120 -58.5t-42 -138.5z" />
<glyph unicode="&#xbb;" d="M180 156v237l205 180l-205 181v237l342 -295v-245zM616 156v237l205 180l-205 181v237l342 -295v-245z" />
<glyph unicode="&#xbc;" horiz-adv-x="1708" d="M53 1176v127h27q68 0 112 14t69.5 36.5t36.5 49.5t13 51h174v-874h-206v596h-226zM279 -39l876 1493h160l-875 -1493h-161zM897 184v152l348 532h221v-542h103v-142h-103v-184h-194v184h-375zM1044 322h236q0 160 2 257t2 117h-4z" />
<glyph unicode="&#xbd;" horiz-adv-x="1708" d="M53 1176v127h27q68 0 112 14t69.5 36.5t36.5 49.5t13 51h174v-874h-206v596h-226zM279 -39l876 1493h160l-875 -1493h-161zM981 0q2 39 9 80t28.5 84t62.5 89t111 93q63 43 108.5 75t74 60.5t42 57t13.5 65.5q0 4 1 6t1 4q0 31 -31 65t-92 34q-49 0 -77 -16.5t-41 -40 t-16.5 -49t-3.5 -44.5h-180q0 106 37 169t87 94.5t102.5 39.5t82.5 8q68 0 127.5 -18t102.5 -54t68.5 -87t25.5 -117q0 -57 -16.5 -101t-43 -79t-58 -60.5t-62.5 -44.5q-92 -55 -137 -91t-62 -54h381v-168h-645z" />
<glyph unicode="&#xbe;" horiz-adv-x="1708" d="M33 846h182q0 -18 4 -42t17.5 -45.5t41 -35.5t74.5 -14q57 0 94 27.5t37 99.5q0 43 -19.5 67.5t-49 36.5t-65.5 14t-68 2v131h30q20 0 46 2.5t49.5 12.5t39 31.5t15.5 62.5q0 12 -3 29.5t-14.5 34t-33 28.5t-60.5 12q-47 0 -72.5 -16t-38 -37.5t-14.5 -43t-2 -29.5h-174 q0 123 77 201.5t236 78.5q47 0 99.5 -12t95.5 -41t70.5 -75t27.5 -116t-35.5 -110.5t-76.5 -57.5v-4q12 -4 35.5 -14t47 -33.5t41 -61.5t17.5 -93q0 -61 -23.5 -112.5t-65.5 -89.5t-101.5 -58.5t-131.5 -20.5q-35 0 -90 7t-108 36t-92 87t-39 161zM369 -39l876 1493h160 l-875 -1493h-161zM965 184v152l348 532h221v-542h102v-142h-102v-184h-195v184h-374zM1110 326h229q0 156 2 252t2 110h-4z" />
<glyph unicode="&#xbf;" horiz-adv-x="1251" d="M113 37q0 61 16 112.5t48 95.5t78 85t105 84q33 25 56.5 45t39 48t22.5 64.5t7 92.5h271q0 -74 -6.5 -129.5t-28 -102.5t-63.5 -91t-111 -93q-59 -41 -93 -90t-34 -113q0 -59 18.5 -99t48 -62.5t64.5 -32t67 -9.5q70 0 112 23.5t64.5 58.5t32 76t13.5 78v2h288 q0 -133 -45 -225.5t-116.5 -148.5t-158.5 -80.5t-171 -24.5q-31 0 -82 4t-108.5 19.5t-118 44t-107.5 76.5t-77.5 120t-30.5 172zM465 801v289h299v-289h-299z" />
<glyph unicode="&#xc0;" horiz-adv-x="1478" d="M41 0l524 1470h355l518 -1470h-334l-94 303h-543l-102 -303h-324zM352 1917h316l192 -299h-207zM549 557h375l-183 582h-4z" />
<glyph unicode="&#xc1;" horiz-adv-x="1478" d="M41 0l524 1470h355l518 -1470h-334l-94 303h-543l-102 -303h-324zM549 557h375l-183 582h-4zM621 1618l192 299h315l-301 -299h-206z" />
<glyph unicode="&#xc2;" horiz-adv-x="1478" d="M41 0l524 1470h355l518 -1470h-334l-94 303h-543l-102 -303h-324zM379 1618l233 299h256l234 -299h-232l-131 168l-129 -168h-231zM549 557h375l-183 582h-4z" />
<glyph unicode="&#xc3;" horiz-adv-x="1478" d="M41 0l524 1470h355l518 -1470h-334l-94 303h-543l-102 -303h-324zM365 1630q6 31 18 73t41 83t74 68.5t114 27.5q35 0 65 -9t83 -29.5t78.5 -28t48.5 -7.5q51 0 70.5 28t25.5 54h133q-4 -23 -15 -64.5t-36 -81.5t-67 -69.5t-105 -29.5q-35 0 -81 11t-75 21 q-49 16 -84 28.5t-61 12.5q-27 0 -45.5 -10t-28.5 -24.5t-15 -30t-7 -23.5h-131zM549 557h375l-183 582h-4z" />
<glyph unicode="&#xc4;" horiz-adv-x="1478" d="M41 0l524 1470h355l518 -1470h-334l-94 303h-543l-102 -303h-324zM412 1638v236h258v-236h-258zM549 557h375l-183 582h-4zM811 1638v236h258v-236h-258z" />
<glyph unicode="&#xc5;" horiz-adv-x="1478" d="M41 0l524 1470h355l518 -1470h-334l-94 303h-543l-102 -303h-324zM520 1757q0 49 20.5 88t52.5 66.5t70.5 43t77.5 15.5t78 -15.5t71 -43t52.5 -66.5t20.5 -88t-20.5 -88t-52.5 -66.5t-71 -43t-78 -15.5t-77.5 15.5t-70.5 43t-52.5 66.5t-20.5 88zM549 557h375l-183 582 h-4zM635 1757q0 -45 30.5 -75.5t75.5 -30.5t76 30.5t31 75.5t-31 76t-76 31t-75.5 -31t-30.5 -76z" />
<glyph unicode="&#xc6;" horiz-adv-x="2048" d="M10 0l537 1470h1392v-260h-759v-309h684v-260h-684v-381h774v-260h-1075v313h-441l-106 -313h-322zM518 555h361v655h-134z" />
<glyph unicode="&#xc7;" horiz-adv-x="1478" d="M90 733q0 193 52.5 338.5t143.5 242.5t215 146t265 49q166 0 282.5 -51t193.5 -128t115 -168t44 -173h-307q-10 33 -25.5 77t-51.5 83t-95.5 66.5t-153.5 27.5q-55 0 -118.5 -21.5t-119 -79t-91.5 -157.5t-36 -256q0 -98 20.5 -189t64.5 -161t113 -111t167 -41 q129 0 213 71t113 206h307q-23 -117 -71 -213t-122.5 -168t-177 -113t-231.5 -47l-54 -76q18 4 30.5 6.5t31.5 2.5q20 0 51 -7.5t59.5 -25t48 -48t19.5 -79.5q0 -90 -70.5 -146.5t-183.5 -56.5q-29 0 -53.5 2t-51 8t-57 15.5t-73.5 25.5l45 99q41 -12 83 -22.5t74 -10.5 q33 0 65 20.5t32 59.5q0 35 -25 54t-55 19q-16 0 -39 -5t-43 -11l-43 41l90 137q-129 12 -237.5 67.5t-187.5 152t-122 233.5t-43 315z" />
<glyph unicode="&#xc8;" horiz-adv-x="1366" d="M156 0v1470h1081v-260h-780v-309h717v-260h-717v-381h815v-260h-1116zM295 1917h315l193 -299h-207z" />
<glyph unicode="&#xc9;" horiz-adv-x="1366" d="M156 0v1470h1081v-260h-780v-309h717v-260h-717v-381h815v-260h-1116zM563 1618l193 299h315l-301 -299h-207z" />
<glyph unicode="&#xca;" horiz-adv-x="1366" d="M156 0v1470h1081v-260h-780v-309h717v-260h-717v-381h815v-260h-1116zM322 1618l233 299h256l233 -299h-231l-131 168l-129 -168h-231z" />
<glyph unicode="&#xcb;" horiz-adv-x="1366" d="M156 0v1470h1081v-260h-780v-309h717v-260h-717v-381h815v-260h-1116zM354 1638v236h258v-236h-258zM754 1638v236h258v-236h-258z" />
<glyph unicode="&#xcc;" horiz-adv-x="569" d="M-102 1917h315l193 -299h-207zM131 0v1470h307v-1470h-307z" />
<glyph unicode="&#xcd;" horiz-adv-x="569" d="M131 0v1470h307v-1470h-307zM166 1618l192 299h316l-301 -299h-207z" />
<glyph unicode="&#xce;" horiz-adv-x="569" d="M-76 1618l234 299h256l233 -299h-231l-131 168l-129 -168h-232zM131 0v1470h307v-1470h-307z" />
<glyph unicode="&#xcf;" horiz-adv-x="569" d="M-43 1638v236h258v-236h-258zM131 0v1470h307v-1470h-307zM356 1638v236h258v-236h-258z" />
<glyph unicode="&#xd0;" horiz-adv-x="1478" d="M-10 647v254h166v569h649q123 0 216 -32.5t159.5 -87t109.5 -126t67.5 -149.5t35 -156.5t10.5 -148.5q0 -78 -11.5 -166t-39 -174t-72.5 -164t-113.5 -137t-161 -94t-212.5 -35h-637v647h-166zM457 254h299q94 0 157.5 43t102.5 112.5t56.5 158.5t17.5 180q0 162 -35 256 t-85 141t-109.5 59.5t-108.5 12.5h-295v-316h340v-254h-340v-393z" />
<glyph unicode="&#xd1;" horiz-adv-x="1478" d="M141 0v1470h324l584 -1024h4v1024h286v-1470h-307l-600 1049h-4v-1049h-287zM365 1630q6 31 18 73t41 83t74 68.5t114 27.5q35 0 65 -9t83 -29.5t78.5 -28t48.5 -7.5q51 0 70.5 28t25.5 54h133q-4 -23 -15 -64.5t-36 -81.5t-67 -69.5t-105 -29.5q-35 0 -81 11t-75 21 q-49 16 -84 28.5t-61 12.5q-27 0 -45.5 -10t-28.5 -24.5t-15 -30t-7 -23.5h-131z" />
<glyph unicode="&#xd2;" horiz-adv-x="1593" d="M90 735q0 172 39 297t101.5 211t140.5 138.5t156.5 81t149.5 37.5t120 9t119.5 -9t149.5 -37.5t156.5 -81t140 -138.5t101.5 -211t39 -297t-39 -297t-101.5 -211t-140 -138t-156.5 -80.5t-149.5 -38t-119.5 -9.5t-120 9.5t-149.5 38t-156.5 80.5t-140.5 138t-101.5 211 t-39 297zM397 735q0 -154 39 -254t98.5 -157.5t130 -80t132.5 -22.5q61 0 131.5 22.5t130 80t98.5 158t39 253.5q0 154 -39 254.5t-98.5 157.5t-130 79.5t-131.5 22.5t-132 -22.5t-130.5 -79.5t-98.5 -157.5t-39 -254.5zM410 1917h315l193 -299h-207z" />
<glyph unicode="&#xd3;" horiz-adv-x="1593" d="M90 735q0 172 39 297t101.5 211t140.5 138.5t156.5 81t149.5 37.5t120 9t119.5 -9t149.5 -37.5t156.5 -81t140 -138.5t101.5 -211t39 -297t-39 -297t-101.5 -211t-140 -138t-156.5 -80.5t-149.5 -38t-119.5 -9.5t-120 9.5t-149.5 38t-156.5 80.5t-140.5 138t-101.5 211 t-39 297zM397 735q0 -154 39 -254t98.5 -157.5t130 -80t132.5 -22.5q61 0 131.5 22.5t130 80t98.5 158t39 253.5q0 154 -39 254.5t-98.5 157.5t-130 79.5t-131.5 22.5t-132 -22.5t-130.5 -79.5t-98.5 -157.5t-39 -254.5zM678 1618l192 299h316l-301 -299h-207z" />
<glyph unicode="&#xd4;" horiz-adv-x="1593" d="M90 735q0 172 39 297t101.5 211t140.5 138.5t156.5 81t149.5 37.5t120 9t119.5 -9t149.5 -37.5t156.5 -81t140 -138.5t101.5 -211t39 -297t-39 -297t-101.5 -211t-140 -138t-156.5 -80.5t-149.5 -38t-119.5 -9.5t-120 9.5t-149.5 38t-156.5 80.5t-140.5 138t-101.5 211 t-39 297zM397 735q0 -154 39 -254t98.5 -157.5t130 -80t132.5 -22.5q61 0 131.5 22.5t130 80t98.5 158t39 253.5q0 154 -39 254.5t-98.5 157.5t-130 79.5t-131.5 22.5t-132 -22.5t-130.5 -79.5t-98.5 -157.5t-39 -254.5zM436 1618l234 299h256l233 -299h-231l-131 168 l-129 -168h-232z" />
<glyph unicode="&#xd5;" horiz-adv-x="1593" d="M90 735q0 172 39 297t101.5 211t140.5 138.5t156.5 81t149.5 37.5t120 9t119.5 -9t149.5 -37.5t156.5 -81t140 -138.5t101.5 -211t39 -297t-39 -297t-101.5 -211t-140 -138t-156.5 -80.5t-149.5 -38t-119.5 -9.5t-120 9.5t-149.5 38t-156.5 80.5t-140.5 138t-101.5 211 t-39 297zM397 735q0 -154 39 -254t98.5 -157.5t130 -80t132.5 -22.5q61 0 131.5 22.5t130 80t98.5 158t39 253.5q0 154 -39 254.5t-98.5 157.5t-130 79.5t-131.5 22.5t-132 -22.5t-130.5 -79.5t-98.5 -157.5t-39 -254.5zM422 1630q6 31 18.5 73t41 83t73.5 68.5t115 27.5 q35 0 64.5 -9t82.5 -29.5t79 -28t48 -7.5q51 0 70.5 28t25.5 54h134q-4 -23 -15.5 -64.5t-36 -81.5t-66.5 -69.5t-106 -29.5q-35 0 -81 11t-74 21q-49 16 -84 28.5t-62 12.5t-45 -10t-28.5 -24.5t-15.5 -30t-7 -23.5h-131z" />
<glyph unicode="&#xd6;" horiz-adv-x="1593" d="M90 735q0 172 39 297t101.5 211t140.5 138.5t156.5 81t149.5 37.5t120 9t119.5 -9t149.5 -37.5t156.5 -81t140 -138.5t101.5 -211t39 -297t-39 -297t-101.5 -211t-140 -138t-156.5 -80.5t-149.5 -38t-119.5 -9.5t-120 9.5t-149.5 38t-156.5 80.5t-140.5 138t-101.5 211 t-39 297zM397 735q0 -154 39 -254t98.5 -157.5t130 -80t132.5 -22.5q61 0 131.5 22.5t130 80t98.5 158t39 253.5q0 154 -39 254.5t-98.5 157.5t-130 79.5t-131.5 22.5t-132 -22.5t-130.5 -79.5t-98.5 -157.5t-39 -254.5zM469 1638v236h258v-236h-258zM868 1638v236h258v-236 h-258z" />
<glyph unicode="&#xd7;" horiz-adv-x="1196" d="M82 164l354 354l-354 354l162 162l354 -354l354 354l162 -162l-354 -354l356 -354l-164 -162l-354 354l-352 -354z" />
<glyph unicode="&#xd8;" horiz-adv-x="1593" d="M68 23l174 190q-66 86 -109 213t-43 309q0 172 39 297t101.5 211t140.5 138.5t156.5 81t149.5 37.5t120 9q41 0 97 -6t119.5 -24.5t130 -51t128.5 -84.5l166 183l86 -78l-172 -188q68 -88 109.5 -215t41.5 -310q0 -172 -39 -297t-101.5 -211t-140 -138t-156.5 -80.5 t-149.5 -38t-119.5 -9.5q-41 0 -97.5 6t-120 24.5t-130 51.5t-127.5 86l-168 -184zM397 735q0 -92 14.5 -163.5t41.5 -125.5l622 682q-63 70 -138 95.5t-140 25.5q-61 0 -132 -22.5t-130.5 -79.5t-98.5 -157.5t-39 -254.5zM516 344q61 -70 137 -96.5t144 -26.5 q61 0 131.5 22.5t130 80t98.5 158t39 253.5q0 182 -57 291z" />
<glyph unicode="&#xd9;" horiz-adv-x="1478" d="M147 496v974h314v-954q0 -78 20.5 -133t56 -91t84 -53.5t101.5 -17.5q160 0 228.5 73t68.5 208v968h313v-956q0 -145 -42 -249.5t-120.5 -172t-190.5 -99.5t-251 -32q-51 0 -111.5 7t-123 27.5t-123 54.5t-109.5 89q-59 68 -84.5 157t-30.5 200zM352 1917h316l192 -299 h-207z" />
<glyph unicode="&#xda;" horiz-adv-x="1478" d="M147 496v974h314v-954q0 -78 20.5 -133t56 -91t84 -53.5t101.5 -17.5q160 0 228.5 73t68.5 208v968h313v-956q0 -145 -42 -249.5t-120.5 -172t-190.5 -99.5t-251 -32q-51 0 -111.5 7t-123 27.5t-123 54.5t-109.5 89q-59 68 -84.5 157t-30.5 200zM621 1618l192 299h315 l-301 -299h-206z" />
<glyph unicode="&#xdb;" horiz-adv-x="1478" d="M147 496v974h314v-954q0 -78 20.5 -133t56 -91t84 -53.5t101.5 -17.5q160 0 228.5 73t68.5 208v968h313v-956q0 -145 -42 -249.5t-120.5 -172t-190.5 -99.5t-251 -32q-51 0 -111.5 7t-123 27.5t-123 54.5t-109.5 89q-59 68 -84.5 157t-30.5 200zM379 1618l233 299h256 l234 -299h-232l-131 168l-129 -168h-231z" />
<glyph unicode="&#xdc;" horiz-adv-x="1478" d="M147 496v974h314v-954q0 -78 20.5 -133t56 -91t84 -53.5t101.5 -17.5q160 0 228.5 73t68.5 208v968h313v-956q0 -145 -42 -249.5t-120.5 -172t-190.5 -99.5t-251 -32q-51 0 -111.5 7t-123 27.5t-123 54.5t-109.5 89q-59 68 -84.5 157t-30.5 200zM412 1638v236h258v-236 h-258zM811 1638v236h258v-236h-258z" />
<glyph unicode="&#xdd;" horiz-adv-x="1366" d="M31 1470h362l305 -639l291 639h348l-491 -919v-551h-307v555zM563 1618l193 299h315l-301 -299h-207z" />
<glyph unicode="&#xde;" horiz-adv-x="1366" d="M156 0v1470h307v-200h364q106 0 191.5 -34t144 -95.5t90 -149.5t31.5 -196q0 -49 -17.5 -129t-68.5 -156t-143 -130t-240 -54h-352v-326h-307zM463 580h285q86 0 132 26.5t67.5 63.5t25.5 75.5t4 63.5q0 109 -63.5 158t-206.5 49h-244v-436z" />
<glyph unicode="&#xdf;" horiz-adv-x="1251" d="M141 0v1104q0 76 29 147.5t87 126t148.5 87t212.5 32.5q35 0 84.5 -4t103.5 -17.5t106.5 -40t94.5 -70.5t68.5 -110.5t26.5 -158.5t-45 -159t-105 -95q82 -37 128 -84t70 -98.5t30 -100.5t6 -90q0 -88 -25.5 -176t-84 -160t-155 -117t-237.5 -45q-27 0 -51.5 3t-61.5 10 v225q16 -2 29 -2h31q131 0 199.5 62.5t68.5 191.5q0 86 -30.5 134t-78 72.5t-101.5 32t-103 11.5v198q41 2 82 6.5t73.5 20.5t53 52t20.5 99q0 68 -26.5 105t-62.5 53.5t-69.5 19.5t-48.5 3q-29 0 -60.5 -8.5t-58 -30t-44 -56t-17.5 -88.5v-1085h-287z" />
<glyph unicode="&#xe0;" d="M59 289q0 80 23.5 140t67 103t101.5 69t126 36l258 39q33 4 66.5 21.5t33.5 64.5q0 45 -19.5 70.5t-47 38t-61.5 15.5t-60 3q-53 0 -87 -14.5t-52.5 -37t-26.5 -49t-10 -51.5h-277q12 125 58.5 201t114 116t149.5 52t166 12q57 0 131.5 -11t142.5 -45t114 -96.5 t46 -162.5v-590q0 -96 18.5 -129t44.5 -41v-43h-309q-6 18 -10 32.5t-7 28t-5.5 29.5t-4.5 39q-25 -25 -55.5 -53.5t-72.5 -51t-96 -38t-128 -15.5q-61 0 -120.5 17.5t-106.5 56.5t-76 99.5t-29 144.5zM182 1536h316l192 -299h-207zM346 307q0 -37 13.5 -62.5t33 -41 t43 -21.5t43.5 -6q47 0 93 15.5t82 43t58.5 67.5t22.5 89v139q-23 -16 -63.5 -30.5t-130.5 -28.5q-41 -6 -76 -16.5t-61.5 -27.5t-42 -46t-15.5 -74z" />
<glyph unicode="&#xe1;" d="M59 289q0 80 23.5 140t67 103t101.5 69t126 36l258 39q33 4 66.5 21.5t33.5 64.5q0 45 -19.5 70.5t-47 38t-61.5 15.5t-60 3q-53 0 -87 -14.5t-52.5 -37t-26.5 -49t-10 -51.5h-277q12 125 58.5 201t114 116t149.5 52t166 12q57 0 131.5 -11t142.5 -45t114 -96.5 t46 -162.5v-590q0 -96 18.5 -129t44.5 -41v-43h-309q-6 18 -10 32.5t-7 28t-5.5 29.5t-4.5 39q-25 -25 -55.5 -53.5t-72.5 -51t-96 -38t-128 -15.5q-61 0 -120.5 17.5t-106.5 56.5t-76 99.5t-29 144.5zM346 307q0 -37 13.5 -62.5t33 -41t43 -21.5t43.5 -6q47 0 93 15.5 t82 43t58.5 67.5t22.5 89v139q-23 -16 -63.5 -30.5t-130.5 -28.5q-41 -6 -76 -16.5t-61.5 -27.5t-42 -46t-15.5 -74zM451 1237l192 299h315l-301 -299h-206z" />
<glyph unicode="&#xe2;" d="M59 289q0 80 23.5 140t67 103t101.5 69t126 36l258 39q33 4 66.5 21.5t33.5 64.5q0 45 -19.5 70.5t-47 38t-61.5 15.5t-60 3q-53 0 -87 -14.5t-52.5 -37t-26.5 -49t-10 -51.5h-277q12 125 58.5 201t114 116t149.5 52t166 12q57 0 131.5 -11t142.5 -45t114 -96.5 t46 -162.5v-590q0 -96 18.5 -129t44.5 -41v-43h-309q-6 18 -10 32.5t-7 28t-5.5 29.5t-4.5 39q-25 -25 -55.5 -53.5t-72.5 -51t-96 -38t-128 -15.5q-61 0 -120.5 17.5t-106.5 56.5t-76 99.5t-29 144.5zM209 1237l233 299h256l234 -299h-232l-131 168l-129 -168h-231z M346 307q0 -37 13.5 -62.5t33 -41t43 -21.5t43.5 -6q47 0 93 15.5t82 43t58.5 67.5t22.5 89v139q-23 -16 -63.5 -30.5t-130.5 -28.5q-41 -6 -76 -16.5t-61.5 -27.5t-42 -46t-15.5 -74z" />
<glyph unicode="&#xe3;" d="M59 289q0 80 23.5 140t67 103t101.5 69t126 36l258 39q33 4 66.5 21.5t33.5 64.5q0 45 -19.5 70.5t-47 38t-61.5 15.5t-60 3q-53 0 -87 -14.5t-52.5 -37t-26.5 -49t-10 -51.5h-277q12 125 58.5 201t114 116t149.5 52t166 12q57 0 131.5 -11t142.5 -45t114 -96.5 t46 -162.5v-590q0 -96 18.5 -129t44.5 -41v-43h-309q-6 18 -10 32.5t-7 28t-5.5 29.5t-4.5 39q-25 -25 -55.5 -53.5t-72.5 -51t-96 -38t-128 -15.5q-61 0 -120.5 17.5t-106.5 56.5t-76 99.5t-29 144.5zM195 1249q6 31 18 73t41 83t74 68.5t114 27.5q35 0 65 -9t83 -29.5 t78.5 -28t48.5 -7.5q51 0 70.5 28t25.5 54h133q-4 -23 -15 -64.5t-36 -81.5t-67 -69.5t-105 -29.5q-35 0 -81 11t-75 21q-49 16 -83.5 28.5t-61.5 12.5t-45.5 -10t-28.5 -24.5t-15 -30t-7 -23.5h-131zM346 307q0 -37 13.5 -62.5t33 -41t43 -21.5t43.5 -6q47 0 93 15.5t82 43 t58.5 67.5t22.5 89v139q-23 -16 -63.5 -30.5t-130.5 -28.5q-41 -6 -76 -16.5t-61.5 -27.5t-42 -46t-15.5 -74z" />
<glyph unicode="&#xe4;" d="M59 289q0 80 23.5 140t67 103t101.5 69t126 36l258 39q33 4 66.5 21.5t33.5 64.5q0 45 -19.5 70.5t-47 38t-61.5 15.5t-60 3q-53 0 -87 -14.5t-52.5 -37t-26.5 -49t-10 -51.5h-277q12 125 58.5 201t114 116t149.5 52t166 12q57 0 131.5 -11t142.5 -45t114 -96.5 t46 -162.5v-590q0 -96 18.5 -129t44.5 -41v-43h-309q-6 18 -10 32.5t-7 28t-5.5 29.5t-4.5 39q-25 -25 -55.5 -53.5t-72.5 -51t-96 -38t-128 -15.5q-61 0 -120.5 17.5t-106.5 56.5t-76 99.5t-29 144.5zM242 1257v236h258v-236h-258zM346 307q0 -37 13.5 -62.5t33 -41 t43 -21.5t43.5 -6q47 0 93 15.5t82 43t58.5 67.5t22.5 89v139q-23 -16 -63.5 -30.5t-130.5 -28.5q-41 -6 -76 -16.5t-61.5 -27.5t-42 -46t-15.5 -74zM641 1257v236h258v-236h-258z" />
<glyph unicode="&#xe5;" d="M59 289q0 80 23.5 140t67 103t101.5 69t126 36l258 39q33 4 66.5 21.5t33.5 64.5q0 45 -19.5 70.5t-47 38t-61.5 15.5t-60 3q-53 0 -87 -14.5t-52.5 -37t-26.5 -49t-10 -51.5h-277q12 125 58.5 201t114 116t149.5 52t166 12q57 0 131.5 -11t142.5 -45t114 -96.5 t46 -162.5v-590q0 -96 18.5 -129t44.5 -41v-43h-309q-6 18 -10 32.5t-7 28t-5.5 29.5t-4.5 39q-25 -25 -55.5 -53.5t-72.5 -51t-96 -38t-128 -15.5q-61 0 -120.5 17.5t-106.5 56.5t-76 99.5t-29 144.5zM346 307q0 -37 13.5 -62.5t33 -41t43 -21.5t43.5 -6q47 0 93 15.5 t82 43t58.5 67.5t22.5 89v139q-23 -16 -63.5 -30.5t-130.5 -28.5q-41 -6 -76 -16.5t-61.5 -27.5t-42 -46t-15.5 -74zM350 1376q0 49 20.5 88t52.5 67t70.5 43t77.5 15t78 -15t71 -43t52.5 -67t20.5 -88t-20.5 -88t-52.5 -66.5t-71 -43t-78 -15.5t-77.5 15.5t-70.5 43 t-52.5 66.5t-20.5 88zM465 1376q0 -45 30.5 -75.5t75.5 -30.5t76 30.5t31 75.5t-31 76t-76 31t-75.5 -31t-30.5 -76z" />
<glyph unicode="&#xe6;" horiz-adv-x="1820" d="M59 305q0 49 13.5 98.5t46.5 92.5t85 74.5t132 45.5l268 46q49 8 79 16t45 19.5t19.5 27.5t4.5 43q0 14 -3.5 35.5t-21.5 40t-59 32t-117 13.5q-59 0 -93 -17.5t-51.5 -41t-22.5 -50t-5 -45.5h-281q8 121 55.5 196t117 117t152.5 56t167 14q66 0 119 -12t95 -30.5 t71.5 -39t50.5 -39.5q25 18 53.5 39t66 38.5t87 29.5t112.5 14q80 0 170 -23.5t166 -90t126 -183t50 -303.5v-51h-747q2 -31 10 -76t33.5 -88t76 -72.5t136.5 -29.5q59 0 113.5 29.5t70.5 88.5h295q-29 -98 -81 -164.5t-117.5 -107.5t-138.5 -58.5t-142 -17.5h-15 q-96 0 -160.5 16.5t-109.5 43t-72.5 57.5t-50.5 59q-53 -84 -163.5 -130t-248.5 -46q-59 0 -126.5 12.5t-126 47.5t-96.5 100.5t-38 173.5zM346 303q0 -63 44 -95t118 -32q41 0 84 16.5t76.5 44t55 66.5t21.5 82v137q-10 -8 -22 -15t-35.5 -15.5t-60.5 -15.5t-95 -15 q-43 -6 -76.5 -14.5t-58 -26t-38 -45t-13.5 -72.5zM1018 653h444q-6 66 -28.5 110t-53 70.5t-67.5 38t-72 11.5q-102 0 -156.5 -60.5t-66.5 -169.5z" />
<glyph unicode="&#xe7;" d="M70 514q0 131 29.5 242.5t93 191.5t162 125t237.5 45q63 0 143 -17.5t151.5 -63.5t124 -128t62.5 -209h-291q-4 27 -15 57.5t-31.5 57.5t-52.5 44.5t-77 17.5h-14q-68 0 -112 -31t-69.5 -77t-35.5 -101.5t-10 -106.5q0 -45 4 -105.5t25.5 -115.5t65.5 -94t126 -39 q55 0 92 22.5t59.5 53t32.5 63.5t10 51h291q-4 -41 -23.5 -106.5t-67.5 -132t-129 -118.5t-210 -65l-61 -88q18 4 30.5 6.5t30.5 2.5q20 0 51 -7.5t59.5 -25t48 -48t19.5 -79.5q0 -90 -70.5 -146.5t-183.5 -56.5q-29 0 -53.5 2t-51 8t-57 15.5t-73.5 25.5l45 99 q41 -12 83 -22.5t74 -10.5q33 0 65 20.5t32 59.5q0 35 -24.5 54t-55.5 19q-16 0 -39 -5t-43 -11l-43 41l96 145q-137 10 -224 64.5t-137 133.5t-69.5 170t-19.5 173z" />
<glyph unicode="&#xe8;" d="M47 567q0 33 5 86.5t23.5 114.5t53.5 123.5t93.5 113t143.5 82t203 31.5q80 0 170 -23.5t166 -90t126 -183t50 -303.5v-51h-747q2 -31 10 -76t33.5 -88t76 -72.5t136.5 -29.5q59 0 113.5 29.5t70.5 88.5h295q-29 -98 -81 -164.5t-117.5 -107.5t-138.5 -58.5t-142 -17.5 q-115 0 -214.5 30t-172 99.5t-114.5 184t-42 282.5zM182 1536h316l192 -299h-207zM342 653h444q-6 66 -28.5 110t-53 70.5t-67.5 38t-72 11.5q-102 0 -156.5 -60.5t-66.5 -169.5z" />
<glyph unicode="&#xe9;" d="M47 567q0 33 5 86.5t23.5 114.5t53.5 123.5t93.5 113t143.5 82t203 31.5q80 0 170 -23.5t166 -90t126 -183t50 -303.5v-51h-747q2 -31 10 -76t33.5 -88t76 -72.5t136.5 -29.5q59 0 113.5 29.5t70.5 88.5h295q-29 -98 -81 -164.5t-117.5 -107.5t-138.5 -58.5t-142 -17.5 q-115 0 -214.5 30t-172 99.5t-114.5 184t-42 282.5zM342 653h444q-6 66 -28.5 110t-53 70.5t-67.5 38t-72 11.5q-102 0 -156.5 -60.5t-66.5 -169.5zM451 1237l192 299h315l-301 -299h-206z" />
<glyph unicode="&#xea;" d="M47 567q0 33 5 86.5t23.5 114.5t53.5 123.5t93.5 113t143.5 82t203 31.5q80 0 170 -23.5t166 -90t126 -183t50 -303.5v-51h-747q2 -31 10 -76t33.5 -88t76 -72.5t136.5 -29.5q59 0 113.5 29.5t70.5 88.5h295q-29 -98 -81 -164.5t-117.5 -107.5t-138.5 -58.5t-142 -17.5 q-115 0 -214.5 30t-172 99.5t-114.5 184t-42 282.5zM209 1237l233 299h256l234 -299h-232l-131 168l-129 -168h-231zM342 653h444q-6 66 -28.5 110t-53 70.5t-67.5 38t-72 11.5q-102 0 -156.5 -60.5t-66.5 -169.5z" />
<glyph unicode="&#xeb;" d="M47 567q0 33 5 86.5t23.5 114.5t53.5 123.5t93.5 113t143.5 82t203 31.5q80 0 170 -23.5t166 -90t126 -183t50 -303.5v-51h-747q2 -31 10 -76t33.5 -88t76 -72.5t136.5 -29.5q59 0 113.5 29.5t70.5 88.5h295q-29 -98 -81 -164.5t-117.5 -107.5t-138.5 -58.5t-142 -17.5 q-115 0 -214.5 30t-172 99.5t-114.5 184t-42 282.5zM242 1257v236h258v-236h-258zM342 653h444q-6 66 -28.5 110t-53 70.5t-67.5 38t-72 11.5q-102 0 -156.5 -60.5t-66.5 -169.5zM641 1257v236h258v-236h-258z" />
<glyph unicode="&#xec;" horiz-adv-x="569" d="M-102 1536h315l193 -299h-207zM141 0v1090h287v-1090h-287z" />
<glyph unicode="&#xed;" horiz-adv-x="569" d="M141 0v1090h287v-1090h-287zM166 1237l192 299h316l-301 -299h-207z" />
<glyph unicode="&#xee;" horiz-adv-x="569" d="M-76 1237l234 299h256l233 -299h-231l-131 168l-129 -168h-232zM141 0v1090h287v-1090h-287z" />
<glyph unicode="&#xef;" horiz-adv-x="569" d="M-43 1257v236h258v-236h-258zM141 0v1090h287v-1090h-287zM356 1257v236h258v-236h-258z" />
<glyph unicode="&#xf0;" horiz-adv-x="1251" d="M70 543q0 113 36.5 210t103 167.5t160 110.5t205.5 40q18 0 48 -3t66 -15.5t72 -35t66 -59.5l4 5q-31 66 -84 130t-114 117l-221 -96l-129 107l221 96q-47 35 -87 58.5t-63 33.5l221 100q37 -16 78 -37.5t84 -52.5l209 90l127 -106l-207 -90q63 -59 120.5 -135t102 -165 t70 -192.5t25.5 -216.5q0 -174 -50.5 -295t-129 -195.5t-177 -108.5t-194.5 -34q-102 0 -202.5 30t-180.5 97.5t-130 177t-50 267.5zM365 535q0 -160 71.5 -241t192.5 -81q92 0 143 41t78 95t33 109.5t6 84.5t-9.5 78t-38 95t-79.5 79.5t-135 33.5q-82 0 -133.5 -34.5 t-80 -82.5t-38.5 -98.5t-10 -78.5z" />
<glyph unicode="&#xf1;" horiz-adv-x="1251" d="M133 0v1090h275v-160h4q14 25 37.5 57.5t62.5 61t94.5 49t132.5 20.5q80 0 149.5 -23.5t120 -69.5t80 -113.5t29.5 -157.5v-754h-287v662q0 31 -3 67.5t-21.5 69t-56 55.5t-105.5 23q-96 0 -160.5 -63.5t-64.5 -188.5v-625h-287zM250 1249q6 31 18.5 73t41 83t73.5 68.5 t115 27.5q35 0 64.5 -9t82.5 -29.5t79 -28t48 -7.5q51 0 70.5 28t25.5 54h133q-4 -23 -15 -64.5t-35.5 -81.5t-66.5 -69.5t-106 -29.5q-35 0 -81 11t-74 21q-49 16 -84 28.5t-62 12.5t-45 -10t-28.5 -24.5t-15.5 -30t-7 -23.5h-131z" />
<glyph unicode="&#xf2;" horiz-adv-x="1251" d="M70 545q0 147 46 254.5t122.5 178.5t177 105.5t211.5 34.5t211 -34.5t177 -105.5t123 -178.5t46 -254.5t-46 -256t-123 -179.5t-177.5 -104.5t-210.5 -34q-111 0 -211.5 34t-177 104.5t-122.5 179t-46 256.5zM238 1536h315l192 -299h-206zM365 545q0 -53 10 -111.5 t37.5 -108t79 -81t135.5 -31.5q82 0 134 31.5t79.5 81t38 108t10.5 111.5q0 51 -10.5 109.5t-38 107.5t-79.5 82t-134 33q-84 0 -135.5 -33t-79 -82t-37.5 -107.5t-10 -109.5z" />
<glyph unicode="&#xf3;" horiz-adv-x="1251" d="M70 545q0 147 46 254.5t122.5 178.5t177 105.5t211.5 34.5t211 -34.5t177 -105.5t123 -178.5t46 -254.5t-46 -256t-123 -179.5t-177.5 -104.5t-210.5 -34q-111 0 -211.5 34t-177 104.5t-122.5 179t-46 256.5zM365 545q0 -53 10 -111.5t37.5 -108t79 -81t135.5 -31.5 q82 0 134 31.5t79.5 81t38 108t10.5 111.5q0 51 -10.5 109.5t-38 107.5t-79.5 82t-134 33q-84 0 -135.5 -33t-79 -82t-37.5 -107.5t-10 -109.5zM506 1237l192 299h316l-301 -299h-207z" />
<glyph unicode="&#xf4;" horiz-adv-x="1251" d="M70 545q0 147 46 254.5t122.5 178.5t177 105.5t211.5 34.5t211 -34.5t177 -105.5t123 -178.5t46 -254.5t-46 -256t-123 -179.5t-177.5 -104.5t-210.5 -34q-111 0 -211.5 34t-177 104.5t-122.5 179t-46 256.5zM264 1237l234 299h256l233 -299h-231l-131 168l-129 -168 h-232zM365 545q0 -53 10 -111.5t37.5 -108t79 -81t135.5 -31.5q82 0 134 31.5t79.5 81t38 108t10.5 111.5q0 51 -10.5 109.5t-38 107.5t-79.5 82t-134 33q-84 0 -135.5 -33t-79 -82t-37.5 -107.5t-10 -109.5z" />
<glyph unicode="&#xf5;" horiz-adv-x="1251" d="M70 545q0 147 46 254.5t122.5 178.5t177 105.5t211.5 34.5t211 -34.5t177 -105.5t123 -178.5t46 -254.5t-46 -256t-123 -179.5t-177.5 -104.5t-210.5 -34q-111 0 -211.5 34t-177 104.5t-122.5 179t-46 256.5zM250 1249q6 31 18.5 73t41 83t73.5 68.5t115 27.5 q35 0 64.5 -9t82.5 -29.5t79 -28t48 -7.5q51 0 70.5 28t25.5 54h133q-4 -23 -15 -64.5t-35.5 -81.5t-66.5 -69.5t-106 -29.5q-35 0 -81 11t-74 21q-49 16 -84 28.5t-62 12.5t-45 -10t-28.5 -24.5t-15.5 -30t-7 -23.5h-131zM365 545q0 -53 10 -111.5t37.5 -108t79 -81 t135.5 -31.5q82 0 134 31.5t79.5 81t38 108t10.5 111.5q0 51 -10.5 109.5t-38 107.5t-79.5 82t-134 33q-84 0 -135.5 -33t-79 -82t-37.5 -107.5t-10 -109.5z" />
<glyph unicode="&#xf6;" horiz-adv-x="1251" d="M70 545q0 147 46 254.5t122.5 178.5t177 105.5t211.5 34.5t211 -34.5t177 -105.5t123 -178.5t46 -254.5t-46 -256t-123 -179.5t-177.5 -104.5t-210.5 -34q-111 0 -211.5 34t-177 104.5t-122.5 179t-46 256.5zM297 1257v236h258v-236h-258zM365 545q0 -53 10 -111.5 t37.5 -108t79 -81t135.5 -31.5q82 0 134 31.5t79.5 81t38 108t10.5 111.5q0 51 -10.5 109.5t-38 107.5t-79.5 82t-134 33q-84 0 -135.5 -33t-79 -82t-37.5 -107.5t-10 -109.5zM696 1257v236h258v-236h-258z" />
<glyph unicode="&#xf7;" horiz-adv-x="1196" d="M82 403v230h1032v-230h-1032zM418 94q0 37 14 71t40 58.5t58.5 38.5t69.5 14t69.5 -14t57.5 -39.5t39 -58.5t14 -70q0 -35 -14 -66.5t-39 -57t-57.5 -41t-67.5 -15.5q-37 0 -70.5 14.5t-59.5 39t-40 57t-14 69.5zM418 940q0 37 14 70.5t40 58.5t58.5 39t69.5 14t69.5 -14 t57.5 -40t39 -58.5t14 -69.5q0 -35 -14 -66.5t-39 -57t-57.5 -41t-67.5 -15.5q-37 0 -70.5 14t-59.5 39t-40 57.5t-14 69.5z" />
<glyph unicode="&#xf8;" horiz-adv-x="1251" d="M45 0l150 158q-59 72 -92 167t-33 220q0 147 46 254.5t122.5 178.5t177 105.5t211.5 34.5q102 0 195 -29.5t171 -91.5l142 150l71 -66l-145 -151q57 -70 90 -165t33 -220q0 -147 -46 -256t-123 -179.5t-177.5 -104.5t-210.5 -34q-102 0 -195.5 30t-167.5 89l-141 -149z M365 545q0 -41 6 -87t24 -91l416 438q-33 35 -77 53.5t-107 18.5q-84 0 -135.5 -33t-79 -82t-37.5 -107.5t-10 -109.5zM446 283q29 -33 73 -51.5t108 -18.5q82 0 134 31.5t79.5 81t38 108t10.5 111.5q0 43 -6 88t-23 86z" />
<glyph unicode="&#xf9;" horiz-adv-x="1251" d="M135 373v717h287v-676q0 -63 16.5 -102.5t43 -61t60 -29.5t66.5 -8q35 0 74 11.5t71.5 40t54 75.5t21.5 121v629h287v-1090h-274v154h-4q-49 -88 -133 -135.5t-199 -47.5q-80 0 -148.5 23.5t-118 73t-77 125t-27.5 180.5zM238 1536h315l192 -299h-206z" />
<glyph unicode="&#xfa;" horiz-adv-x="1251" d="M135 373v717h287v-676q0 -63 16.5 -102.5t43 -61t60 -29.5t66.5 -8q35 0 74 11.5t71.5 40t54 75.5t21.5 121v629h287v-1090h-274v154h-4q-49 -88 -133 -135.5t-199 -47.5q-80 0 -148.5 23.5t-118 73t-77 125t-27.5 180.5zM506 1237l192 299h316l-301 -299h-207z" />
<glyph unicode="&#xfb;" horiz-adv-x="1251" d="M135 373v717h287v-676q0 -63 16.5 -102.5t43 -61t60 -29.5t66.5 -8q35 0 74 11.5t71.5 40t54 75.5t21.5 121v629h287v-1090h-274v154h-4q-49 -88 -133 -135.5t-199 -47.5q-80 0 -148.5 23.5t-118 73t-77 125t-27.5 180.5zM264 1237l234 299h256l233 -299h-231l-131 168 l-129 -168h-232z" />
<glyph unicode="&#xfc;" horiz-adv-x="1251" d="M135 373v717h287v-676q0 -63 16.5 -102.5t43 -61t60 -29.5t66.5 -8q35 0 74 11.5t71.5 40t54 75.5t21.5 121v629h287v-1090h-274v154h-4q-49 -88 -133 -135.5t-199 -47.5q-80 0 -148.5 23.5t-118 73t-77 125t-27.5 180.5zM297 1257v236h258v-236h-258zM696 1257v236h258 v-236h-258z" />
<glyph unicode="&#xfd;" d="M20 1090h320l233 -803h5l223 803h303l-375 -1072q-51 -152 -88 -241.5t-80 -138t-101.5 -62.5t-152.5 -14q-29 0 -63.5 1t-65.5 3v229q10 -2 23.5 -3t31.5 -1q39 0 70 4t53.5 21.5t39 50.5t26.5 88zM451 1237l192 299h315l-301 -299h-206z" />
<glyph unicode="&#xfe;" horiz-adv-x="1251" d="M127 -426v1896h287v-520h4q14 25 38.5 53.5t62.5 54t89 43t123 17.5q90 0 172 -34.5t144.5 -104.5t99.5 -175.5t37 -246.5q0 -113 -27 -218.5t-82 -187t-142 -131t-208 -49.5q-76 0 -128 17.5t-88 44t-57.5 55.5t-33.5 51h-4v-565h-287zM401 520q0 -61 13.5 -117.5 t44 -99.5t79 -69.5t115.5 -26.5q70 0 115 33.5t71.5 83t38 106.5t11.5 107q0 63 -12.5 123.5t-41 107.5t-75.5 74.5t-115 27.5q-74 0 -121 -30.5t-74.5 -79.5t-38 -111.5t-10.5 -128.5z" />
<glyph unicode="&#xff;" d="M20 1090h320l233 -803h5l223 803h303l-375 -1072q-51 -152 -88 -241.5t-80 -138t-101.5 -62.5t-152.5 -14q-29 0 -63.5 1t-65.5 3v229q10 -2 23.5 -3t31.5 -1q39 0 70 4t53.5 21.5t39 50.5t26.5 88zM242 1257v236h258v-236h-258zM641 1257v236h258v-236h-258z" />
<glyph unicode="&#x152;" horiz-adv-x="2048" d="M76 735q0 135 30.5 273.5t103.5 250t189.5 181t288.5 69.5q70 0 122 -12t89 -31.5t62.5 -41t44.5 -40.5v86h962v-260h-682v-309h635v-260h-635v-381h682v-260h-962v102q-31 -35 -62 -61.5t-67.5 -43.5t-85 -26.5t-111.5 -9.5q-92 0 -197.5 35t-195.5 122t-150.5 236.5 t-60.5 380.5zM377 719q0 -82 18.5 -171t59.5 -163t105.5 -122t158.5 -48q63 0 113.5 17.5t84 44t51 60.5t17.5 64v666q0 55 -26.5 91t-65.5 57.5t-83 30.5t-79 9q-96 0 -162.5 -42t-109.5 -114.5t-62.5 -171t-19.5 -208.5z" />
<glyph unicode="&#x153;" horiz-adv-x="1933" d="M70 545q0 147 46 254.5t122.5 178.5t177 105.5t211.5 34.5q113 0 214 -46t160 -118q29 29 62 58.5t74 53.5t94 38t125 14q80 0 170 -23.5t165.5 -90t126 -183t50.5 -303.5v-51h-748q2 -31 10.5 -76t34 -88t75.5 -72.5t136 -29.5q59 0 113.5 29.5t71.5 88.5h294 q-29 -98 -81 -164.5t-117.5 -107.5t-138 -58.5t-142.5 -17.5q-92 0 -155.5 14.5t-108.5 37t-75.5 49t-53.5 51.5q-18 -25 -48 -51.5t-73 -49t-101.5 -37t-133.5 -14.5q-111 0 -211.5 34t-177 104.5t-122.5 179t-46 256.5zM365 545q0 -53 10 -111.5t37.5 -108t79 -81 t135.5 -31.5q82 0 134 31.5t79.5 81t38 108t10.5 111.5q0 51 -10.5 109.5t-38 107.5t-79.5 82t-134 33q-84 0 -135.5 -33t-79 -82t-37.5 -107.5t-10 -109.5zM1128 653h445q-6 66 -28.5 110t-53.5 70.5t-68 38t-71 11.5q-102 0 -156.5 -60.5t-67.5 -169.5z" />
<glyph unicode="&#x178;" horiz-adv-x="1366" d="M31 1470h362l305 -639l291 639h348l-491 -919v-551h-307v555zM354 1638v236h258v-236h-258zM754 1638v236h258v-236h-258z" />
<glyph unicode="&#x2c6;" horiz-adv-x="681" d="M-20 1237l233 299h256l233 -299h-231l-131 168l-129 -168h-231z" />
<glyph unicode="&#x2dc;" horiz-adv-x="681" d="M-35 1249q6 31 18.5 73t41 83t73.5 68.5t115 27.5q35 0 64.5 -9t83 -29.5t79 -28t47.5 -7.5q51 0 71 28t26 54h133q-4 -23 -15.5 -64.5t-36 -81.5t-66.5 -69.5t-105 -29.5q-35 0 -81 11t-75 21q-49 16 -84 28.5t-61 12.5q-27 0 -45.5 -10t-28.5 -24.5t-15.5 -30 t-7.5 -23.5h-131z" />
<glyph unicode="&#x2000;" horiz-adv-x="985" />
<glyph unicode="&#x2001;" horiz-adv-x="1970" />
<glyph unicode="&#x2002;" horiz-adv-x="985" />
<glyph unicode="&#x2003;" horiz-adv-x="1970" />
<glyph unicode="&#x2004;" horiz-adv-x="656" />
<glyph unicode="&#x2005;" horiz-adv-x="492" />
<glyph unicode="&#x2006;" horiz-adv-x="328" />
<glyph unicode="&#x2007;" horiz-adv-x="328" />
<glyph unicode="&#x2008;" horiz-adv-x="246" />
<glyph unicode="&#x2009;" horiz-adv-x="394" />
<glyph unicode="&#x200a;" horiz-adv-x="109" />
<glyph unicode="&#x2010;" horiz-adv-x="681" d="M55 440v267h572v-267h-572z" />
<glyph unicode="&#x2011;" horiz-adv-x="681" d="M55 440v267h572v-267h-572z" />
<glyph unicode="&#x2012;" horiz-adv-x="681" d="M55 440v267h572v-267h-572z" />
<glyph unicode="&#x2013;" d="M0 465v217h1139v-217h-1139z" />
<glyph unicode="&#x2014;" horiz-adv-x="2048" d="M0 465v217h2048v-217h-2048z" />
<glyph unicode="&#x2018;" horiz-adv-x="569" d="M141 930v209q0 96 28 159.5t69 102.5t91 58.5t93 29.5v-105q-51 -16 -81 -37.5t-45 -46t-19.5 -53t-6.5 -57.5h158v-260h-287z" />
<glyph unicode="&#x2019;" horiz-adv-x="569" d="M141 1210v260h287v-208q0 -96 -27.5 -160t-68.5 -102.5t-91.5 -59t-93.5 -29.5v105q51 16 80 37.5t44.5 46t20.5 53.5t7 57h-158z" />
<glyph unicode="&#x201a;" horiz-adv-x="569" d="M141 0v260h287v-209q0 -96 -27.5 -159.5t-68.5 -102.5t-91.5 -59.5t-93.5 -28.5v104q51 16 80 38t44.5 46.5t20.5 53t7 57.5h-158z" />
<glyph unicode="&#x201c;" horiz-adv-x="1024" d="M131 930v209q0 96 27.5 159.5t68.5 102.5t91.5 58.5t93.5 29.5v-105q-51 -16 -81 -37.5t-45.5 -46t-19.5 -53t-6 -57.5h158v-260h-287zM606 930v209q0 96 28 159.5t68.5 102.5t91 58.5t93.5 29.5v-105q-51 -16 -81 -37.5t-45.5 -46t-19.5 -53t-6 -57.5h158v-260h-287z " />
<glyph unicode="&#x201d;" horiz-adv-x="1024" d="M131 1210v260h287v-208q0 -96 -28 -160t-68.5 -102.5t-91 -59t-93.5 -29.5v105q51 16 80 37.5t44 46t20.5 53.5t7.5 57h-158zM606 1210v260h287v-208q0 -96 -27.5 -160t-68.5 -102.5t-91.5 -59t-93.5 -29.5v105q51 16 80 37.5t44.5 46t20.5 53.5t7 57h-158z" />
<glyph unicode="&#x201e;" horiz-adv-x="1024" d="M131 0v260h287v-209q0 -96 -28 -159.5t-68.5 -102.5t-91 -59.5t-93.5 -28.5v104q51 16 80 38t44 46.5t20.5 53t7.5 57.5h-158zM606 0v260h287v-209q0 -96 -27.5 -159.5t-68.5 -102.5t-91.5 -59.5t-93.5 -28.5v104q51 16 80 38t44.5 46.5t20.5 53t7 57.5h-158z" />
<glyph unicode="&#x2022;" horiz-adv-x="716" d="M20 737q0 70 27 131.5t72 107.5t106.5 71.5t132.5 25.5q70 0 131.5 -25.5t107.5 -71.5t72.5 -107.5t26.5 -131.5q0 -72 -26.5 -133t-72.5 -107t-107.5 -73t-131.5 -27q-72 0 -133 26t-106 72t-72 108t-27 134z" />
<glyph unicode="&#x2026;" horiz-adv-x="2048" d="M188 0v299h308v-299h-308zM870 0v299h308v-299h-308zM1552 0v299h308v-299h-308z" />
<glyph unicode="&#x202f;" horiz-adv-x="394" />
<glyph unicode="&#x2039;" horiz-adv-x="681" d="M170 451v245l342 295v-237l-205 -181l205 -180v-237z" />
<glyph unicode="&#x203a;" horiz-adv-x="681" d="M170 156v237l205 180l-205 181v237l342 -295v-245z" />
<glyph unicode="&#x205f;" horiz-adv-x="492" />
<glyph unicode="&#x20ac;" d="M25 459l81 194h84q0 14 -1 27.5t-1 28.5v43h-163l79 194h103q37 244 173 376t363 132q76 0 142.5 -17.5t119 -44t90.5 -59.5t58 -61l-94 -230q-6 12 -18.5 28.5t-45.5 49.5q-35 35 -95 70t-157 35q-197 0 -243 -279h518l-82 -194h-453v-99h414l-82 -194h-311 q6 -45 21.5 -92.5t43 -86t70.5 -64.5t104 -26q98 0 179.5 31t136.5 78v-262q-72 -47 -152 -61.5t-164 -14.5q-209 0 -349 121t-185 377h-184z" />
<glyph unicode="&#x2122;" horiz-adv-x="2048" d="M90 1296v174h698v-174h-235v-669h-229v669h-234zM948 627v843h314l192 -512l191 512h313v-843h-217v575h-4l-201 -575h-166l-201 575h-4v-575h-217z" />
<glyph unicode="&#xe000;" horiz-adv-x="1085" d="M0 0v1085h1085v-1085h-1085z" />
<glyph unicode="&#xfb01;" horiz-adv-x="1251" d="M20 885v205h158v88q0 170 86 240.5t234 70.5q63 0 96 -1t51 -3v-232h-80q-37 0 -57.5 -6t-29.5 -20.5t-11 -38t-2 -55.5v-43h186v-205h-186v-885h-287v885h-158zM823 0v1090h287v-1090h-287zM823 1219v266h287v-266h-287z" />
<glyph unicode="&#xfb02;" horiz-adv-x="1251" d="M20 885v205h158v88q0 170 86 240.5t234 70.5q63 0 96 -1t51 -3v-232h-80q-37 0 -57.5 -6t-29.5 -20.5t-11 -38t-2 -55.5v-43h186v-205h-186v-885h-287v885h-158zM823 0v1470h287v-1470h-287z" />
</font>
</defs>
</svg>
